<?xml version="1.0" standalone="no"?>
<!DOCTYPE svg PUBLIC "-//W3C//DTD SVG 1.1//EN" "http://www.w3.org/Graphics/SVG/1.1/DTD/svg11.dtd" >
<svg xmlns="http://www.w3.org/2000/svg">
<metadata>
<json>
<![CDATA[
{
	"fontFamily": "Get-Social-Font",
	"fontURL": "https://haeckdesign.com/freebies/icons/get-social-icon-set",
	"designer": "Matthew Haeck",
	"designerURL": "https://haeckdesign.com/",
	"license": "Creative Commons Attribution-ShareAlike 3.0 Unported License",
	"licenseURL": "http://creativecommons.org/licenses/by-sa/3.0/deed.en_US",
	"description": "Font based social icon set. Offered w/ a CC3.0 license. Please note HaeckDesign has no affiliation with any of the companies listed. If a representative of any company listed would like their logo removed, simply contact us and it will be done. We have posted this font set because it simplifies mockups for designers and we have found it useful around the studio.\nFont generated by IcoMoon.",
	"majorVersion": 1,
	"minorVersion": 5,
	"version": "Version 1.5",
	"fontId": "Get-Social-Font",
	"psName": "Get-Social-Font",
	"subFamily": "Regular",
	"fullName": "Get-Social-Font"
}
]]>
</json>
</metadata>
<defs>
<font id="Get-Social-Font" horiz-adv-x="1024">
<font-face units-per-em="1024" ascent="960" descent="-64" />
<missing-glyph horiz-adv-x="1024" />
<glyph unicode="&#x20;" horiz-adv-x="512" d="" />
<glyph unicode="&#xe600;" glyph-name="behance" data-tags="behance" d="M459.388 695.436c18.432-25.756 27.71-56.824 27.71-92.958 0-37.172-9.4-67.2-27.954-89.844-10.5-12.632-25.694-24.23-45.898-34.604 30.7-11.414 53.896-29.234 69.578-53.774 15.624-24.718 23.438-54.382 23.438-89.416 0-36.132-8.91-68.482-26.856-97.108-11.35-19.104-25.51-35.036-42.6-48.218-19.166-14.83-41.992-24.9-68.054-30.516-26.184-5.372-54.568-8.12-85.146-8.12h-271.606v609.622h291.32c73.426-1.040 125.55-22.704 156.068-65.064zM132.24 654.48v-134.278h146.484c26.124 0 47.3 5.004 63.78 15.016 16.176 10.192 24.414 28.016 24.414 53.588 0 28.504-10.804 47.058-32.346 56.274-18.554 6.348-42.416 9.398-71.226 9.398h-131.106zM132.24 419.070v-162.416h146.242c26.124 0 46.506 3.724 61.036 10.808 26.488 13.3 39.67 38.692 39.67 76.106 0 31.804-12.816 53.53-38.452 65.37-14.282 6.592-34.302 10.010-60.18 10.132h-148.316zM895.422 592.594c31.126-14.16 56.824-36.316 77.148-66.71 18.126-26.976 30.030-57.984 35.522-93.324 3.052-20.63 4.334-50.354 3.786-89.294h-324.586c1.83-45.41 17.456-77.026 46.752-95.276 17.702-11.292 39.126-16.906 64.086-16.906 26.55 0 48.158 6.896 64.636 20.69 9.156 7.448 17.090 17.644 24.11 31.010h118.9c-3.114-26.608-17.578-53.892-43.212-81.608-39.922-43.638-95.83-65.674-167.668-65.674-59.264 0-111.51 18.494-156.92 55.48-45.29 37.048-67.872 97.108-67.872 180.542 0 78.004 20.384 138 61.4 179.686 40.832 41.626 93.934 62.564 159.244 62.564 38.756 0 73.668-7.266 104.674-21.18zM721.228 490.726c-16.484-17.274-26.738-40.464-31.010-69.946h200.686c-2.134 31.372-12.512 55.238-31.126 71.35-18.494 16.176-41.504 24.294-68.97 24.294-29.908-0.002-53.162-8.672-69.58-25.698zM637 698h312.498v-62.5h-312.498v62.5z" />
<glyph unicode="&#xe601;" glyph-name="bitbucket" data-tags="bitbucket" horiz-adv-x="805" d="M465.714 469.143q4.571-36-28.857-57.714t-63.714-3.429q-22.286 9.714-30.571 33.143t-0.286 46.857 29.714 33.143q20.571 10.286 41.429 6.857t36.571-20.286 15.714-38.571zM529.143 481.143q-8 61.143-64.571 93.714t-112.571 7.429q-36-16-57.429-50.571t-19.714-74q2.286-52 44.286-88.571t94.571-32q52 4.571 86.857 48t28.571 96zM665.714 790.857q-11.429 15.429-32 25.429t-33.143 12.571-40.571 7.143q-166.286 26.857-323.429-1.143-24.571-4-37.714-6.857t-31.429-12.571-28.571-24.571q17.143-16 43.429-26t42-12.571 50-6.571q130.286-16.571 256-0.571 36 4.571 51.143 6.857t41.429 12.286 42.857 26.571zM698.286 199.429q-4.571-14.857-8.857-43.714t-8-48-16.286-40-33.143-32.286q-49.143-27.429-108.286-40.857t-115.429-12.571-115.143 10.571q-26.286 4.571-46.571 10.286t-43.714 15.429-41.714 24.857-29.714 35.143q-14.286 54.857-32.571 166.857l3.429 9.143 10.286 5.143q127.429-84.571 289.429-84.571t290 84.571q12-3.429 13.714-13.143t-2.857-25.714-4.571-21.143zM801.714 748.571q-14.857-95.429-63.429-374.286-2.857-17.143-15.429-32t-24.857-22.857-31.143-17.714q-144-72-348.571-50.286-141.714 15.429-225.143 79.429-8.571 6.857-14.571 15.143t-9.714 20-5.143 19.429-3.429 22.571-3.143 20q-5.143 28.571-15.143 85.714t-16 92.286-13.429 84.286-12.571 90.286q1.714 14.857 10 27.714t18 21.429 25.714 17.143 26.286 12.857 27.429 10.571q71.429 26.286 178.857 36.571 216.571 21.143 386.286-28.571 88.571-26.286 122.857-69.714 9.143-11.429 9.429-29.143t-3.143-30.857z" />
<glyph unicode="&#xe602;" glyph-name="blogger" data-tags="blogger" d="M891.698 557.302h-33.62c0 0-5.99 0-6.956 0-55.152 0-64.698 49.014-64.698 49.014l1.254-0.914c-6.434 158.126-126.576 283.684-290.788 284.696v-0.196h-131.22c-163.638-1.050-295.67-131.452-295.67-295.24 0-0.67 0 0.578 0 0.578v0-294.714c0-163.65 131.316-293.566 295.576-294.526v-0.098l295.528 0.196c147.768 3.062 292.896 130.778 292.896 294.428v0 198.606c0 31.41-30.786 58.17-62.302 58.17zM349.034 670.294c0.472 0 0.138-0.050 0.138-0.050v0h164.162c32.804-0.716 53.716-30.596 53.716-59.516s-20.912-53.426-53.716-53.426v0h-164.162c0 0-1.628 0-2.060 0-29.45 0-59.372 24.938-59.372 54.29s31.942 58.702 61.294 58.702zM652.422 224.704v0h-303.246v1.726c0 0-1.63 0-2.062 0-29.448 0-58.85 28.296-58.85 57.694 0 29.352 29.3 52.66 58.754 52.66 0.432 0 1.628 0 1.628 0h306.368c32.902 0 50.262-26.192 50.262-55.202 0.002-28.878-20-56.878-52.854-56.878z" />
<glyph unicode="&#xe603;" glyph-name="chrome" data-tags="chrome" d="M258.278 513.458l-146.532 253.802c93.818 117.464 238.234 192.74 400.254 192.74 187.432 0 351.31-100.736 440.532-251h-417.77c-7.504 0.65-15.092 1-22.762 1-121.874 0-224.578-83.644-253.722-196.542zM695.306 635h293.46c22.74-57.93 35.234-121.004 35.234-187 0-280.826-226.1-508.804-506.186-511.926l209.394 362.678c29.48 42.378 46.792 93.826 46.792 149.248 0 73.17-30.164 139.42-78.694 187zM326 448c0 102.56 83.44 186 186 186s186-83.44 186-186c0-102.56-83.44-186-186-186s-186 83.44-186 186zM582.182 195.558l-146.578-253.878c-246.532 36.884-435.604 249.516-435.604 506.32 0 91.218 23.884 176.846 65.696 251.024l209.030-362.054c41.868-89.112 132.476-150.97 237.274-150.97 24.3 0 47.836 3.34 70.182 9.558z" />
<glyph unicode="&#xe604;" glyph-name="facebook" data-tags="facebook" horiz-adv-x="585" d="M548 905.143v-150.857h-89.714q-49.143 0-66.286-20.571t-17.143-61.714v-108h167.429l-22.286-169.143h-145.143v-433.714h-174.857v433.714h-145.714v169.143h145.714v124.571q0 106.286 59.429 164.857t158.286 58.571q84 0 130.286-6.857z" />
<glyph unicode="&#xe605;" glyph-name="twitter" data-tags="twitter" horiz-adv-x="951" d="M925.714 710.857q-38.286-56-92.571-95.429 0.571-8 0.571-24 0-74.286-21.714-148.286t-66-142-105.429-120.286-147.429-83.429-184.571-31.143q-154.857 0-283.429 82.857 20-2.286 44.571-2.286 128.571 0 229.143 78.857-60 1.143-107.429 36.857t-65.143 91.143q18.857-2.857 34.857-2.857 24.571 0 48.571 6.286-64 13.143-106 63.714t-42 117.429v2.286q38.857-21.714 83.429-23.429-37.714 25.143-60 65.714t-22.286 88q0 50.286 25.143 93.143 69.143-85.143 168.286-136.286t212.286-56.857q-4.571 21.714-4.571 42.286 0 76.571 54 130.571t130.571 54q80 0 134.857-58.286 62.286 12 117.143 44.571-21.143-65.714-81.143-101.714 53.143 5.714 106.286 28.571z" />
<glyph unicode="&#xe606;" glyph-name="codepen" data-tags="codepen" d="M123.429 292l344.571-229.714v205.143l-190.857 127.429zM88 374.286l110.286 73.714-110.286 73.714v-147.429zM556 62.286l344.571 229.714-153.714 102.857-190.857-127.429v-205.143zM512 344l155.429 104-155.429 104-155.429-104zM277.143 501.143l190.857 127.429v205.143l-344.571-229.714zM825.714 448l110.286-73.714v147.429zM746.857 501.143l153.714 102.857-344.571 229.714v-205.143zM1024 604v-312q0-23.429-19.429-36.571l-468-312q-12-7.429-24.571-7.429t-24.571 7.429l-468 312q-19.429 13.143-19.429 36.571v312q0 23.429 19.429 36.571l468 312q12 7.429 24.571 7.429t24.571-7.429l468-312q19.429-13.143 19.429-36.571z" />
<glyph unicode="&#xe607;" glyph-name="css3" data-tags="css3" d="M901.8 737.046l-387.482-165.665h373.904l-42.795-491.787-330.202-96.178-331.393 97.959-21.387 247.659h164.48l10.694-128.256 176.070-44.47 1.537 0.403v-0.162l182.346 51.329 12.45 206.658-558.268 1.811-12.478 155.012 397.864 165.668h-412.119l-19.59 158.637h812.43z" />
<glyph unicode="&#xe608;" glyph-name="digg" data-tags="digg" horiz-adv-x="1170" d="M187.429 798.857h116.571v-561.714h-304v398.286h187.429v163.429zM187.429 330.857v210.857h-70.286v-210.857h70.286zM350.857 635.429v-398.286h117.143v398.286h-117.143zM350.857 798.857v-116.571h117.143v116.571h-117.143zM514.857 635.429h304.571v-538.286h-304.571v93.143h187.429v46.857h-187.429v398.286zM702.286 330.857v210.857h-70.286v-210.857h70.286zM866.286 635.429h304v-538.286h-304v93.143h186.857v46.857h-186.857v398.286zM1053.143 330.857v210.857h-70.286v-210.857h70.286z" />
<glyph unicode="&#xe609;" glyph-name="deviantart" data-tags="deviantart" d="M819.2 755.456l9.728 18.368v186.176h-186.24l-18.56-18.752-87.808-167.488-27.648-18.56h-313.6v-255.68h172.416l15.36-18.56-178.112-340.48-9.728-18.304v-186.176h186.24l18.56 18.752 87.872 167.488 27.648 18.56h313.6v255.68h-172.416l-15.36 18.688 178.112 340.288z" />
<glyph unicode="&#xe60a;" glyph-name="dribbble" data-tags="dribbble" d="M649.143 102.857q-24 137.714-80 284.571h-1.143l-1.143-0.571q-9.143-3.429-24.571-9.429t-57.714-28-78.286-46.857-74.857-65.429-58.857-84.571l-8.571 6.286q105.143-85.714 238.857-85.714 75.429 0 146.286 29.714zM543.429 449.714q-12 28-30.286 63.429-177.714-53.143-384.571-53.143-0.571-4-0.571-12 0-70.857 25.143-135.143t70.857-115.143q28.571 50.857 70.571 95.143t81.429 71.143 74.571 46.286 56.857 27.429l21.143 7.429q2.286 0.571 7.429 2t7.429 2.571zM482.286 570.857q-68.571 121.714-139.429 216-78.857-37.143-133.714-106.286t-73.143-155.429q172.571 0 346.286 45.714zM873.143 388.571q-120 34.286-233.714 16.571 49.714-136.571 73.143-268 63.429 42.857 105.714 108.286t54.857 143.143zM413.143 812q-0.571 0-1.143-0.571 0.571 0.571 1.143 0.571zM750.286 729.143q-105.714 93.714-247.429 93.714-43.429 0-88.571-10.857 74.857-97.143 140.571-218.286 39.429 14.857 74.286 34.571t55.143 35.143 37.429 32.571 21.429 23.143zM877.714 452q-1.714 132.571-85.143 234.286l-0.571-0.571q-5.143-6.857-10.857-14t-24.857-25.429-40.571-34.571-57.143-37.143-75.143-36.857q14.286-30.286 25.143-54.286 1.143-3.429 3.714-10t4.286-9.429q20.571 2.857 42.571 4t42 1.143 39.429-0.857 36.571-2.286 32.286-3.143 27.429-3.714 20.857-3.429 14.286-2.571zM941.714 448q0-119.429-58.857-220.286t-159.714-159.714-220.286-58.857-220.286 58.857-159.714 159.714-58.857 220.286 58.857 220.286 159.714 159.714 220.286 58.857 220.286-58.857 159.714-159.714 58.857-220.286z" />
<glyph unicode="&#xe60b;" glyph-name="dropbox" data-tags="dropbox" d="M229.714 556l282.286-174.286-195.429-162.857-280 182.286zM793.143 238.857v-61.714l-280-167.429v-0.571l-0.571 0.571-0.571-0.571v0.571l-279.429 167.429v61.714l84-54.857 195.429 162.286v1.143l0.571-0.571 0.571 0.571v-1.143l196-162.286zM316.571 892.571l195.429-162.857-282.286-173.714-193.143 154.286zM794.286 556l193.143-154.857-279.429-182.286-196 162.857zM708 892.571l279.429-182.286-193.143-154.286-282.286 173.714z" />
<glyph unicode="&#xe60c;" glyph-name="drupal" data-tags="drupal" d="M730.857 53.714q-2.857 10.857-13.714 2.857-17.143-12.571-49.714-22.286t-74.857-9.714q-73.714 0-110.286 28-2.857 2.286-7.429 2.286-6.286 0-14.857-6.857-4-3.429-4.286-9.143t4.286-11.429q19.429-18.286 50-26.286t58.571-7.143 56.571 2.571q23.429 2.286 48.286 11.714t37.143 17.143 16.286 11.714q6.857 6.857 4 16.571zM708.571 119.429q-10.857 26.857-22.286 34.857-13.143 8.571-43.429 8.571-26.857 0-40.571-5.714-16.571-6.857-44.571-32-14.857-13.714-6.857-25.143 5.143-4.571 10-2.571t18 13.429q1.714 1.143 6 4.857t6 4.857 5.714 4 6.571 4 7.143 2.857 8.571 2.571 9.429 1.429 11.714 0.571q15.429 0 25.429-4.286t13.143-8.286 7.714-12.571q5.714-9.714 7.143-11.429t7.143 0.571q13.143 6.857 8 19.429zM911.429 280q0 12.571-2.857 25.429t-9.429 25.714-19.429 20.857-30 8q-18.857 0-55.429-23.714t-73.714-47.714-57.714-24q-15.429-0.571-36.286 10.857t-43.429 28-47.714 33.143-57.143 28-63.429 10.857q-65.714-0.571-112.571-44.857t-48-102q-1.143-64 42.286-93.714 16.571-11.429 35.714-16.286t59.143-4.857q32.571 0 75.429 18.571t76.571 40.571 68.571 40.286 53.143 17.714q14.857-0.571 37.143-18t40.857-38.286 38.857-38.571 31.714-18.286q20-1.714 33.429 8t31.714 36q16 23.429 24.286 57.714t8.286 60.571zM941.714 371.429q0-93.714-35.429-174t-94.857-134.857-138.571-85.429-166-30.857-167.429 32.857-141.429 89.714-97.429 138-36.571 172.571q0 50.857 11.143 98.571t28 83.143 40.286 67.714 44.857 53.714 44.857 39.714 36.857 26.571 24.286 14q8 4.571 29.143 15.143t31.143 16.286 27.429 17.143 34.571 25.143q20.571 16 33.143 41.429t17.143 71.714q73.714-88.571 106.286-110.286 25.143-16.571 74.286-38.857t73.714-37.714q12-7.429 22.286-14.286t34.571-26.571 43.429-40.286 42.857-54.286 39.429-69.714 26.857-84.857 11.143-101.429z" />
<glyph unicode="&#xe60d;" glyph-name="evernote" data-tags="evernote" d="M324.806 697.886c-0.254 0.968 0 62.55 0 62.55v187.564l-249.574-250.114h187.192c0 0 62.696-0.854 62.382 0zM892.596 822.532c-18.796 31.186-117.004 52.238-167.94 52.238-50.926 0-131.366 0-131.366 0s-43.86 61.464-142.644 71.15c-79.694 7.834-63.402-23.982-63.402-60.414v-250.112h-249.628c0 0-63.12 16.778-63.12-26.748 0-80.75 10.738-343.624 185.056-369.716 206.192-30.876 237.238 19.994 237.238 31.278 0 46.824 8.006 101.572 8.006 101.572s79.954-94.052 171.040-90.634c89.384 3.418 108.18-55.432 108.18-107.382 0-52.014 0-96.504 0-96.504s-0.342-35.432-54-35.432c-53.61 0-99.184 0-99.184 0s-37.542 3.932-37.542 43.014c0 39.020 23.642 49.444 45.12 49.444 21.418 0 37.542-2.62 37.542-2.62v70.294c0 0-168.48 23.53-168.48-104.196 0-127.492 67.022-149.766 139.426-149.766 72.408 0 117.978 0 117.978 0s184.63 1.878 184.63 408.052c0 406.242-38.168 435.204-56.91 466.482zM677.774 470.588c0 0 13.39 52.124 53.612 52.124 40.218 0 78.842-81.89 78.842-81.89s-84.262 29.766-132.454 29.766z" />
<glyph unicode="&#xe60e;" glyph-name="ello" data-tags="ello" d="M512 960c-282.77 0-512-229.23-512-512s229.23-512 512-512 512 229.23 512 512-229.23 512-512 512zM824.636 370.402c-36.798-142.716-165.358-242.402-312.63-242.402-147.282 0-275.85 99.686-312.654 242.42-6.232 24.158 8.352 48.886 32.512 55.124 3.71 0.958 7.528 1.446 11.338 1.446 20.624 0 38.628-13.972 43.788-33.976 26.512-102.748 119.042-174.51 225.014-174.51 105.978 0 198.502 71.76 225 174.51 5.152 20.006 23.15 33.982 43.766 33.982 3.822 0 7.65-0.49 11.376-1.456 11.692-3.016 21.526-10.418 27.668-20.842 6.142-10.416 7.854-22.596 4.822-34.296z" />
<glyph unicode="&#xe60f;" glyph-name="firefox" data-tags="firefox" d="M1022.526 625.86l-11.86-76.080c0 0-16.954 140.856-37.732 193.514-31.846 80.688-46.014 80.040-46.108 79.922 21.33-54.204 17.462-83.324 17.462-83.324s-37.792 102.998-137.712 135.768c-110.686 36.282-170.57 26.364-177.488 24.486-1.050 0.008-2.064 0.010-3.030 0.010 0.818-0.062 1.612-0.146 2.426-0.212-0.034-0.020-0.090-0.042-0.082-0.052 0.45-0.548 122.306-21.302 143.916-50.996 0 0-51.76 0-103.272-14.842-2.328-0.666 189.524-23.964 228.746-215.674 0 0-21.030 43.876-47.040 51.328 17.106-52.036 12.714-150.776-3.576-199.85-2.096-6.312-4.24 27.282-36.328 41.75 10.28-73.646-0.616-190.456-51.708-222.632-3.982-2.504 32.030 115.31 7.242 69.762-142.708-218.802-311.404-100.972-387.248-49.11 38.866-8.462 112.654 1.318 145.314 25.612 0.042 0.030 0.078 0.056 0.118 0.086 35.468 24.252 56.472 41.964 75.334 37.772 18.874-4.214 31.438 14.726 16.78 31.53-14.676 16.838-50.314 39.978-98.524 27.366-34-8.904-76.134-46.522-140.448-8.432-49.364 29.25-54.012 53.546-54.45 70.376 1.218 5.966 2.754 11.536 4.576 16.624 5.682 15.87 22.912 20.658 32.494 24.438 16.256-2.792 30.262-7.862 44.968-15.406 0.19 4.894 0.252 11.39-0.018 18.76 1.41 2.802 0.538 11.252-1.722 21.58-1.302 10.308-3.42 20.974-6.752 30.692 0.012 0.002 0.020 0.010 0.030 0.014 0.056 0.018 0.108 0.040 0.156 0.070 0.078 0.044 0.146 0.112 0.208 0.19 0.012 0.020 0.030 0.034 0.044 0.052 0.082 0.124 0.154 0.272 0.198 0.466 1.020 4.618 12.022 13.524 25.718 23.1 12.272 8.58 26.702 17.696 38.068 24.752 10.060 6.248 17.72 10.882 19.346 12.098 0.618 0.466 1.358 1.012 2.164 1.636 0.15 0.116 0.3 0.232 0.454 0.354 0.094 0.074 0.19 0.148 0.286 0.226 5.41 4.308 13.484 12.448 15.178 29.578 0.004 0.042 0.010 0.080 0.012 0.122 0.050 0.504 0.092 1.014 0.13 1.534 0.028 0.362 0.050 0.726 0.072 1.096 0.014 0.284 0.032 0.566 0.044 0.856 0.030 0.674 0.050 1.364 0.060 2.064 0 0.040 0.002 0.076 0.004 0.116 0.022 1.658-0.006 3.386-0.104 5.202-0.054 1.014-0.126 1.93-0.298 2.762-0.008 0.044-0.018 0.092-0.028 0.136-0.018 0.082-0.036 0.164-0.058 0.244-0.036 0.146-0.076 0.292-0.122 0.43-0.006 0.018-0.010 0.032-0.016 0.046-0.052 0.16-0.112 0.314-0.174 0.464-0.004 0.006-0.004 0.010-0.006 0.016-1.754 4.108-8.32 5.658-35.442 6.118-0.026 0.002-0.050 0.002-0.076 0.002v0c-11.066 0.188-25.538 0.194-44.502 0.118-33.25-0.134-51.628 32.504-57.494 45.132 8.040 44.46 31.276 76.142 69.45 97.626 0.722 0.406 0.58 0.742-0.274 0.978 7.464 4.514-90.246 0.124-135.186-57.036-39.888 9.914-74.654 9.246-104.616 2.214-5.754 0.162-12.924 0.88-21.434 2.652-19.924 18.056-48.448 51.402-49.976 91.208 0 0-0.092-0.072-0.252-0.204-0.020 0.382-0.056 0.76-0.072 1.142 0 0-60.716-46.664-51.628-173.882-0.022-2.036-0.064-3.986-0.12-5.874-16.432-22.288-24.586-41.020-25.192-45.156-14.56-29.644-29.334-74.254-41.356-141.98 0 0 8.408 26.666 25.284 56.866-12.412-38.022-22.164-97.156-16.436-185.856 0 0 1.514 19.666 6.874 47.994 4.186-55.010 22.518-122.924 68.858-202.788 88.948-153.32 225.67-230.74 376.792-242.616 26.836-2.212 54.050-2.264 81.424-0.186 2.516 0.178 5.032 0.364 7.55 0.574 30.964 2.174 62.134 6.852 93.238 14.366 425.172 102.798 378.942 616.198 378.942 616.198z" />
<glyph unicode="&#xe610;" glyph-name="flickr" data-tags="flickr" d="M252.058 243.2c-110.95 0-200.858 91.597-200.858 204.8s89.907 204.8 200.858 204.8c110.95 0 200.909-91.648 200.909-204.8s-89.958-204.8-200.909-204.8zM771.891 243.2c-111.002 0-201.011 91.597-201.011 204.8s90.010 204.8 201.011 204.8c110.899 0 200.909-91.648 200.909-204.8s-90.010-204.8-200.909-204.8z" />
<glyph unicode="&#xe611;" glyph-name="foursquare" data-tags="foursquare" horiz-adv-x="731" d="M571.429 680l21.143 110.857q2.857 13.143-5.143 22.857t-20 9.714h-406.857q-13.143 0-22-9.714t-8.857-21.143v-629.143q0-4 3.429-0.571l166.286 201.143q13.143 14.857 21.714 19.143t27.429 4.286h136.571q12.571 0 21.143 8.286t10.286 16.857q13.714 74.286 21.143 109.143 2.286 12-6.571 22.857t-20.857 10.857h-168q-16.571 0-27.429 10.857t-10.857 27.429v24q0 16.571 10.857 27.143t27.429 10.571h197.714q10.286 0 20 7.714t11.429 16.857zM701.143 806.857q-8.571-41.714-30.571-152.286t-39.714-200-20-99.143q-3.429-12.571-5.143-18.571t-8-18.571-14-18.857-22-12-33.143-5.714h-154.857q-7.429 0-12.571-5.714-4.571-5.143-243.429-282.286-12.571-14.286-33.429-16.286t-27.714 3.143q-31.429 12.571-31.429 56v805.714q0 31.429 21.714 58.571t68.571 27.143h507.429q54.286 0 72.571-30.286t5.714-90.857zM701.143 806.857l-90.286-451.429q2.286 9.714 20 99.143t39.714 200 30.571 152.286z" />
<glyph unicode="&#xe612;" glyph-name="forrst" data-tags="forrst" d="M432 64h-384l448 896 448-896h-384v128h128v64h-128v128h-128zM432 64h128v-128h-128z" />
<glyph unicode="&#xe613;" glyph-name="github" data-tags="github" d="M512.513 960c-282.88 0-512-229.248-512-512 0-226.24 146.688-418.112 350.080-485.759 25.6-4.8 35.008 11.008 35.008 24.64 0 12.16-0.448 44.353-0.641 87.040-142.464-30.912-172.48 68.672-172.48 68.672-23.296 59.136-56.96 74.88-56.96 74.88-46.4 31.745 3.585 31.104 3.585 31.104 51.392-3.583 78.4-52.735 78.4-52.735 45.697-78.272 119.872-55.679 149.12-42.56 4.607 33.088 17.791 55.679 32.447 68.48-113.728 12.799-233.216 56.831-233.216 252.992 0 55.872 19.84 101.569 52.672 137.409-5.313 12.928-22.912 64.96 4.928 135.488 0 0 43.008 13.76 140.799-52.48 40.832 11.392 84.672 17.024 128.192 17.28 43.521-0.256 87.296-5.888 128.192-17.28 97.728 66.24 140.671 52.48 140.671 52.48 27.968-70.528 10.433-122.56 5.12-135.488 32.832-35.84 52.672-81.537 52.672-137.409 0-196.672-119.68-240-233.792-252.607 18.368-15.743 34.751-47.040 34.751-94.721 0-68.48-0.64-123.711-0.64-140.48 0-13.76 9.216-29.631 35.2-24.64 203.331 67.775 349.89 259.519 349.89 485.695 0 282.752-229.248 512-512 512" />
<glyph unicode="&#xe615;" glyph-name="google-plus" data-tags="google-plus" d="M325.76 494.528v-111.68h184.96c-7.424-48-55.872-140.608-184.768-140.608-111.168 0-201.92 92.16-201.92 205.76s90.56 205.76 201.728 205.76c63.36 0 105.728-27.008 129.92-50.304l88.448 85.12c-56.768 53.12-130.368 85.12-218.24 85.12-180.288 0.064-325.888-145.472-325.888-325.696s145.664-325.76 325.76-325.76c188.16 0 312.832 132.16 312.832 318.336 0 21.376-2.304 37.76-5.12 53.952h-307.712zM1024 494.528h-93.12v93.12h-93.12v-93.12h-93.056v-93.056h93.12v-93.12h93.12v93.12h93.056z" />
<glyph unicode="&#xe616;" glyph-name="google-drive" data-tags="google-drive" d="M459.33 300.168l-170.654-295.668h564.654l170.67 295.668zM975.612 384l-292.934 507.5h-341.348l292.956-507.5zM292.836 807.486l-292.836-507.318 170.676-295.668 292.832 507.324z" />
<glyph unicode="&#xe617;" glyph-name="grooveshark" data-tags="grooveshark" d="M458.78 879.992c-123.966-13.176-215.786-74.182-277.556-145.748-61.202-70.768-114.418-173.538-112.15-301.932 2.26-127.292 53.646-223.756 119.072-294.962 79.606-86.774 204.772-151.168 364.32-138.838 227.906 17.604 407.49 206.584 402.45 454.614-2.4 117.964-64.99 230.116-121.388 291.564-84.742 92.322-211.122 152.844-374.748 135.302zM691.254 421.926c-93.888 119.744-165.122 229.202-336.542 277.656 3.894-99.506 15.042-210.46-45.094-281.166-27.022-31.67-81-66.818-121.47-48.552-40.994 18.514-29.42 99.224-17.306 152.672 32.996 146.378 154.35 259.734 315.724 270.732 143.826 9.84 267.752-73.116 322.688-163.106 28.182-46.292 53.896-125.466 52.066-190.928-4.080-142.006-111.076-92.634-170.066-17.308z" />
<glyph unicode="&#xe618;" glyph-name="html5" data-tags="html5" d="M142.78 857.315l40.378-447.548 1.684 3.366h504.745l-16.822-190.117-161.521-45.43-163.201 47.117-10.094 114.406h-148.063l20.193-228.825 301.166-85.807 301.172 85.807 42.064 449.225h-536.72l-13.462 149.749h563.644l13.458 148.057z" />
<glyph unicode="&#xe619;" glyph-name="instagram" data-tags="instagram" d="M858.286 145.143v370.286h-77.143q11.429-36 11.429-74.857 0-72-36.571-132.857t-99.429-96.286-137.143-35.429q-112.571 0-192.571 77.429t-80 187.143q0 38.857 11.429 74.857h-80.571v-370.286q0-14.857 10-24.857t24.857-10h610.857q14.286 0 24.571 10t10.286 24.857zM696 449.714q0 70.857-51.714 120.857t-124.857 50q-72.571 0-124.286-50t-51.714-120.857 51.714-120.857 124.286-50q73.143 0 124.857 50t51.714 120.857zM858.286 655.429v94.286q0 16-11.429 27.714t-28 11.714h-99.429q-16.571 0-28-11.714t-11.429-27.714v-94.286q0-16.571 11.429-28t28-11.429h99.429q16.571 0 28 11.429t11.429 28zM957.714 774.286v-652.571q0-46.286-33.143-79.429t-79.429-33.143h-652.571q-46.286 0-79.429 33.143t-33.143 79.429v652.571q0 46.286 33.143 79.429t79.429 33.143h652.571q46.286 0 79.429-33.143t33.143-79.429z" />
<glyph unicode="&#xe61a;" glyph-name="ie" data-tags="ie" d="M750.202 347.17h236.050c1.82 16.37 2.548 33.098 2.548 50.196 0 80.224-21.534 155.468-59.124 220.266 38.88 103.308 37.492 190.988-14.556 243.39-49.496 49.28-182.29 41.28-332.412-25.198-11.104 0.84-22.318 1.272-33.638 1.272-206.048 0-378.926-141.794-426.708-332.85 64.638 82.754 132.638 142.754 223.478 186.448-8.26-7.74-56.454-55.652-64.56-63.764-239.548-239.478-315.090-552.306-233.806-633.604 61.786-61.774 173.758-51.342 302.376 11.648 59.806-30.458 127.5-47.63 199.218-47.63 193.134 0 356.804 124.316 416.090 297.448h-237.868c-32.734-60.382-96.748-101.48-170.218-101.48s-137.484 41.098-170.216 101.48c-14.55 27.274-22.914 58.554-22.914 91.656v0.722h386.26zM364.302 463.196c5.456 97.11 86.2 174.584 184.766 174.584s179.312-77.472 184.766-174.584h-369.532zM912.966 812.192c33.526-33.88 32.688-96.214 4.012-174.022-49.136 74.908-120.518 133.936-204.792 167.64 90.106 38.638 163.406 43.756 200.78 6.382zM109.482 8.744c-42.782 42.796-29.884 132.618 25.23 240.832 34.308-96.27 101.156-177.090 187.336-229.154-95.43-43.318-173.536-50.674-212.566-11.678z" />
<glyph unicode="&#xe61b;" glyph-name="joomla" data-tags="joomla" d="M691.429 346.857l-91.429-91.429-86.286-86.857-17.143-17.143q-37.143-36.571-86.571-49.714t-98-1.143q-9.143-40-41.143-65.714t-73.714-25.714q-48.571 0-82.857 34.571t-34.286 83.143q0 41.143 25.429 73.143t64.857 41.143q-12.571 49.143 0.571 98.857t50.286 86.857l6.857 6.857 86.286-86.857-6.286-6.286q-21.143-21.143-21.143-50.857t21.143-51.429q21.143-21.143 50.857-21.143t50.857 21.143l17.143 17.143 86.286 86.857 92 91.429zM496.571 736.571l6.857-6.857-86.857-86.857-6.857 6.857q-21.143 21.143-50.857 21.143t-50.857-21.143-21.143-51.143 21.143-51.143l194.857-194.857-86.286-86.857-92 91.429-86.286 86.857-17.143 17.143q-38.857 38.286-51.429 91.143t2.857 102.571q-40 8.571-65.714 40.571t-25.714 73.714q0 48.571 34.286 83.143t82.857 34.571q43.429 0 76.286-28t39.714-70.286q48 11.429 96.857-2t85.429-50zM957.714 126.857q0-48.571-34.286-83.143t-82.857-34.571q-42.286 0-74.857 26.857t-40.571 67.429q-49.143-16-102.571-3.429t-92.286 51.429l-6.286 6.857 86.286 86.857 6.857-6.857q21.143-21.143 50.857-21.143t50.857 21.143 21.143 50.857-21.143 50.857l-195.429 195.429 86.857 86.857 178.286-178.286 16.571-17.143q36.571-36.571 50-86t1.429-98q43.429-6.286 72.286-39.143t28.857-76.857zM956.571 769.143q0-44-29.143-77.143t-72.571-39.429q14.857-48.571 1.714-100.857t-51.429-90.571l-6.857-6.857-86.286 86.857 6.857 6.857q21.143 21.143 21.143 50.857t-21.143 50.857-50.857 21.143-50.857-21.143l-195.429-195.429-86.857 86.857 92 91.429 86.857 86.857 16.571 17.143q38.286 38.286 90.857 51.143t101.714-2q6.286 42.857 39.143 72t77.429 29.143q48.571 0 82.857-34.571t34.286-83.143z" />
<glyph unicode="&#xe61c;" glyph-name="lastfm" data-tags="lastfm" d="M738.286 557.714q0-3.429 5.714-23.429 5.714-16.571 14.286-28.286t23.429-19.429 25.143-11.429 31.429-9.429q185.714-52 185.714-189.714 0-83.429-60.286-138.571t-145.429-55.143q-33.714 0-63.714 10.571t-52.286 26-44 42.571-36 50-30.571 59.143-24.857 58.857-22.571 60.857-20.286 54.286q-18.286 46.286-35.143 76.286t-42 55.143-59.429 36.571-81.143 11.429q-54.857 0-104.571-31.714t-78.857-82.571-29.143-105.714q0-91.429 60.857-159.714t150.571-68.286q101.143 0 147.429 54.286 32 36 47.429 66.286l48-86.857q-8.571-19.429-25.143-40l0.571-0.571q-74.857-86.857-221.714-86.857-84 0-154 45.143t-108.857 118.571-38.857 156.857q0 60 24.857 117.714t66.286 100.857 98.286 69.429 116.857 26.286q49.714 0 90.857-10.857t70.571-28.571 54.286-45.714 41.429-56.571 33.429-66.857 28.857-71.143 28.571-74.571 31.429-72.571q54.857-114.286 133.143-114.286 46.286 0 79.143 27.714t32.857 73.429q0 24-10.857 41.143t-28.857 26.286-41.429 18-48.286 15.429-50 19.429-46.286 29.714-37.143 46.857-22.286 70q-1.714 9.143-1.714 18.857 0 62.857 50 109.714t113.429 44.571q44.571-1.714 68.857-8.286t51.714-30.571h-0.571q6.857-6.286 13.143-14t14.857-20.571 10.857-15.714l-73.714-56.571q-14.857 28-30.857 40v0.571q-13.143 12-55.429 12-28 0-48-18.857t-20-47.429z" />
<glyph unicode="&#xe61d;" glyph-name="linkedin" data-tags="linkedin" d="M279.429 602.857v-566.286h-188.571v566.286h188.571zM291.429 777.714q0.571-41.714-28.857-69.714t-77.429-28h-1.143q-46.857 0-75.429 28t-28.571 69.714q0 42.286 29.429 70t76.857 27.714 76-27.714 29.143-70zM957.714 361.143v-324.571h-188v302.857q0 60-23.143 94t-72.286 34q-36 0-60.286-19.714t-36.286-48.857q-6.286-17.143-6.286-46.286v-316h-188q1.143 228 1.143 369.714t-0.571 169.143l-0.571 27.429h188v-82.286h-1.143q11.429 18.286 23.429 32t32.286 29.714 49.714 24.857 65.429 8.857q97.714 0 157.143-64.857t59.429-190z" />
<glyph unicode="&#xe61e;" glyph-name="myspace" data-tags="myspace" d="M849.5 448h-675v112.5h-112.5v-225h900v225h-112.5z" />
<glyph unicode="&#xe61f;" glyph-name="opera" data-tags="opera" d="M343.488 736.512c-56.64-66.816-93.248-165.632-95.808-276.48v-24.064c2.56-110.848 39.168-209.664 95.808-276.48 73.408-95.36 182.592-155.84 304.64-155.84 74.88 0 145.088 22.848 205.056 62.72-90.496-81.088-209.984-130.368-341.184-130.368-8.192 0-16.32 0.192-24.32 0.64-271.552 12.608-487.68 236.8-487.68 511.36 0 282.88 229.248 512 512 512h1.92c130.368-0.512 249.216-49.728 339.328-130.304-60.032 39.68-130.176 62.72-205.184 62.72-121.984 0-231.168-60.544-304.64-155.904zM1024 448c0-151.68-65.92-287.872-170.752-381.632-131.328-64-253.696-19.2-294.208 8.768 128.96 28.288 226.432 184.32 226.432 372.864 0 188.672-97.472 344.576-226.432 372.928 40.448 27.904 162.88 72.704 294.208 8.768 104.832-93.696 170.752-230.016 170.752-381.696z" />
<glyph unicode="&#xe620;" glyph-name="paypal" data-tags="paypal" d="M635.429 673.143q0 90.857-135.429 90.857h-40q-18.286 0-34-12.286t-19.714-30l-36-157.714q-1.143-2.857-1.143-9.143 0-13.714 9.714-22.571t23.429-8.857h30.286q39.429 0 73.429 7.429t64.286 23.429 47.714 46.571 17.429 72.286zM980.571 586.286q0-151.429-125.714-244.571-125.143-92-349.714-92h-34.857q-18.286 0-33.714-12.286t-19.429-30l-41.714-180.571q-4.571-20.571-23.143-35.143t-39.714-14.571h-121.714q-17.714 0-30.286 11.429t-12.571 29.143q0 5.714 7.429 37.143h86.286q19.429 0 36.571 13.429t21.714 32.286l41.714 180.571q4.571 18.857 21.429 32.571t36.286 13.714h34.857q222.857 0 346.857 91.429t124 240.571q0 73.714-29.143 118.286 104.571-52.571 104.571-191.429zM876 692q0-150.857-126.286-244.571-124.571-92-349.714-92h-34.286q-18.286 0-34-12.571t-19.714-30.286l-41.714-180q-4.571-20.571-22.857-35.143t-39.429-14.571h-122.286q-17.714 0-30 11.143t-12.286 29.429q0 4.571 1.143 11.429l171.429 743.429q4.571 20.571 23.143 35.143t39.714 14.571h253.714q38.857 0 71.429-2.286t68.857-8.571 64.857-17.143 55.143-28.857 44.286-42.286 28.286-59.143 10.571-77.714z" />
<glyph unicode="&#xe621;" glyph-name="pinterest" data-tags="pinterest" d="M457.139 282.726c-26.88-140.954-59.699-276.122-156.979-346.726-30.003 213.094 44.083 373.094 78.49 542.976-58.675 98.816 7.066 297.574 130.867 248.576 152.32-60.262-131.891-367.258 58.88-405.606 199.219-40.038 280.525 345.6 157.030 470.989-178.483 181.146-519.578 4.198-477.594-255.027 10.189-63.386 75.674-82.637 26.163-170.086-114.227 25.293-148.326 115.405-143.923 235.52 7.066 196.557 176.64 334.182 346.726 353.229 215.142 24.115 417.024-78.95 444.826-281.293 31.386-228.352-97.024-475.699-327.117-457.882-62.31 4.762-88.474 35.635-137.37 65.331z" />
<glyph unicode="&#xe622;" glyph-name="reddit" data-tags="reddit" horiz-adv-x="1134" d="M474.857 409.143q0-32-23.143-54.857t-55.143-22.857q-32.571 0-56 22.857t-23.429 54.857q0 32.571 23.714 56t55.714 23.429 55.143-23.429 23.143-56zM738.286 488.571q32 0 55.143-23.429t23.143-56q0-32-23.143-54.857t-55.143-22.857q-32.571 0-56 22.857t-23.429 54.857q0 32.571 23.714 56t55.714 23.429zM1133.714 494.857q0-35.429-17.714-65.143t-47.429-46.857q2.857-18.857 2.857-34.857 0-69.143-39.143-131.714t-112.857-110.571q-71.429-46.857-163.143-71.714t-191.714-24.857q-100.571 0-192.286 24.857t-162.571 71.714q-73.714 48-112.857 110.286t-39.143 132q0 16.571 2.857 37.714-27.429 17.714-44 46.571t-16.571 62.571q0 53.714 37.714 91.429t91.429 37.714q47.429 0 84.571-31.429 141.714 90.286 338.286 93.714l76.571 241.714q2.286 8 10 12.286t16.286 2.571l198.286-46.857q12.571 28.571 39.143 46.286t58.571 17.714q44 0 75.143-31.143t31.143-75.143-31.143-75.429-75.143-31.429q-43.429 0-74.571 30.857t-31.714 74.857l-180 42.286-66.286-209.143q186.857-8 320-94.857 36.571 33.143 86.286 33.143 53.714 0 91.429-37.714t37.714-91.429zM950.857 916q-25.714 0-44-18.286t-18.286-44 18.286-44 44-18.286 44 18.286 18.286 44-18.286 44-44 18.286zM44 494.857q0-38.286 29.143-63.429 28 74.857 102.857 134.286-20.571 14.286-46.857 14.286-35.429 0-60.286-24.857t-24.857-60.286zM895.429 142.286q64 41.714 98 94.857t34 110.857-34 110.571-98 94.571q-66.286 42.857-151.714 66t-179.143 23.143-179.143-23.143-151.714-66q-64-41.714-98-94.571t-34-110.571 34-110.857 98-94.857q66.286-42.857 151.714-66t179.143-23.143 179.143 23.143 151.714 66zM1057.143 428q32.571 26.286 32.571 66.857 0 35.429-24.857 60.286t-60.286 24.857q-28 0-49.143-16 74.857-60 101.714-136zM718.857 217.714q6.286 6.286 15.429 6.286t15.429-6.286 6.286-15.714-6.286-15.714q-56.571-56.571-182.286-56.571h-1.143q-125.714 0-182.286 56.571-6.286 6.286-6.286 15.714t6.286 15.714 15.429 6.286 15.429-6.286q44-44 151.429-44h1.143q107.429 0 151.429 44z" />
<glyph unicode="&#xe623;" glyph-name="rss" data-tags="rss" d="M136.294 209.070c-75.196 0-136.292-61.334-136.292-136.076 0-75.154 61.1-135.802 136.292-135.802 75.466 0 136.494 60.648 136.494 135.802-0.002 74.742-61.024 136.076-136.494 136.076zM0.156 612.070v-196.258c127.784 0 247.958-49.972 338.458-140.512 90.384-90.318 140.282-211.036 140.282-339.3h197.122c-0.002 372.82-303.282 676.070-675.862 676.070zM0.388 960v-196.356c455.782 0 826.756-371.334 826.756-827.644h196.856c0 564.47-459.254 1024-1023.612 1024z" />
<glyph unicode="&#xe624;" glyph-name="safari" data-tags="safari" d="M512 896c-24.064 0-47.708-1.792-70.824-5.212-0.3 0.782-0.624 1.548-0.982 2.296 12.826 10.002 19.55 23.83 16.634 37.552-3.734 17.564-22.394 29.364-46.434 29.364-5.18 0-10.458-0.562-15.68-1.672-30.168-6.414-50.146-28.622-45.482-50.562 2.834-13.338 14.292-23.338 30.164-27.384-0.032-0.972-0.016-1.95 0.042-2.934-200.622-57.53-347.438-242.338-347.438-461.448 0-265.098 214.904-480 480-480s480 214.902 480 480c0 265.096-214.902 480-480 480zM364.882 911.092c-2.706 12.726 12.48 27.19 33.158 31.584 4.132 0.878 8.29 1.324 12.354 1.324 16.036 0 28.694-6.864 30.784-16.69 1.596-7.51-3.070-15.61-11.386-21.904-7.034 4.966-16.016 7.126-25.1 5.196-9.044-1.922-16.348-7.508-20.758-14.856-10.184 2.45-17.508 8.084-19.052 15.346zM769.386 158.614c-43.968-43.968-97.21-75.278-155.31-92.154l-42.396 68.768-10.746-79.958c-16.090-2.152-32.426-3.27-48.934-3.27-97.228 0-188.636 37.864-257.386 106.614-43.968 43.966-75.278 97.21-92.154 155.308l68.768 42.398-79.96 10.746c-2.15 16.090-3.268 32.426-3.268 48.934 0 97.228 37.862 188.636 106.614 257.386 43.968 43.968 97.212 75.278 155.31 92.156l42.396-68.77 10.748 79.96c16.088 2.15 32.424 3.268 48.932 3.268 97.228 0 188.636-37.862 257.386-106.614 43.968-43.968 75.278-97.212 92.154-155.31l-68.77-42.398 79.96-10.746c2.152-16.088 3.27-32.424 3.27-48.932 0-97.228-37.864-188.636-106.614-257.386zM760.902 664.902l-196.978-149.704c-14.644 7.658-30.876 12.062-47.416 12.726l-51.080 107.18-3.068-118.664c-13.284-6.536-25.104-15.664-34.876-26.95l-63.088 22.364 46.092-48.538c-6.334-13.518-9.866-28.030-10.434-42.824l-107.158-51.066 118.738-3.068c0.38-0.768 0.774-1.526 1.17-2.282l-149.704-196.98 196.978 149.704c14.644-7.656 30.874-12.060 47.416-12.724l51.080-107.182 3.066 118.664c13.286 6.538 25.106 15.664 34.878 26.952l63.090-22.368-46.094 48.54c6.336 13.52 9.868 28.030 10.436 42.824l107.156 51.066-118.736 3.070c-0.378 0.766-0.774 1.524-1.17 2.28l149.702 196.98zM512.102 515.466v0zM492.042 509.902c6.726 1.43 13.444 2.118 20.056 2.118 4.144 0 8.25-0.27 12.294-0.796l0.092-0.032-0.010 0.022c8.732-1.144 17.176-3.5 25.132-6.896l-71.546-54.376-54.38-71.552c-2.376 5.594-4.27 11.484-5.58 17.652-11.026 51.86 22.080 102.836 73.942 113.86zM562.12 334.116v0 0c-9.056-5.544-19.182-9.684-30.16-12.018-6.726-1.43-13.444-2.118-20.054-2.118-4.15 0-8.258 0.272-12.308 0.798l-0.068 0.010c-8.734 1.142-17.174 3.5-25.132 6.894l71.544 54.376 54.38 71.554c2.376-5.594 4.27-11.486 5.58-17.654 8.69-40.882-10.056-81.2-43.782-101.842z" />
<glyph unicode="&#xe625;" glyph-name="skype" data-tags="skype" d="M901.3 446.958c0 221.54-179.63 401.164-401.222 401.164-20.71 0-40.926-2.032-60.752-5.054-40.044 34.168-91.846 54.932-148.536 54.932-126.288 0-228.79-102.45-228.79-228.79 0-51.582 17.248-99.042 46.086-137.274-5.878-27.412-9.172-55.81-9.172-84.978 0-221.65 179.572-401.278 401.164-401.278 28.458 0 56.252 3.078 83 8.73 40.214-35.040 92.618-56.41 150.13-56.41 126.344 0 228.792 102.448 228.792 228.792 0 62.458-25.048 118.98-65.7 160.234 2.968 19.666 5 39.55 5 59.932zM687.288 272.218c-15.766-22.466-38.948-40.044-69.378-52.734-30.432-12.798-66.522-19.118-108.214-19.118-50.098 0-91.406 8.68-123.926 26.094-23.016 12.468-41.748 29.168-56.194 50.098-14.392 20.818-21.642 41.144-21.642 60.86 0 11.484 4.338 21.258 12.966 29.388 8.678 8.182 19.718 12.248 33.066 12.248 10.822 0 20.050-3.13 27.52-9.558 7.47-6.316 13.898-15.766 19.172-28.234 6.482-14.884 13.458-27.246 20.928-37.19 7.47-9.998 18.072-18.236 31.64-24.664 13.624-6.482 31.53-9.722 53.614-9.722 30.488 0 55.204 6.482 74.208 19.55 19.006 13.020 28.564 29.28 28.564 48.838 0 15.438-5.11 28.016-15.38 37.628-10.272 9.668-23.51 17.030-39.826 22.136-16.258 5.054-37.898 10.488-65.202 16.202-36.418 7.856-66.906 17.034-91.462 27.466-24.552 10.546-44.11 24.826-58.448 42.958-14.446 18.182-21.64 40.704-21.64 67.566 0 25.706 7.578 48.45 22.852 68.39 15.158 19.884 37.186 35.266 66.082 45.92 28.84 10.712 62.678 16.040 101.678 16.040 31.092 0 58.066-3.516 80.752-10.604 22.74-7.086 41.578-16.532 56.578-28.29 14.942-11.808 25.928-24.17 32.852-37.080 6.922-12.91 10.38-25.544 10.38-37.792 0-11.26-4.338-21.424-12.91-30.432-8.678-8.954-19.5-13.514-32.408-13.514-11.762 0-20.714 2.746-26.808 8.128-6.096 5.382-12.742 14.228-19.884 26.532-9.228 17.578-20.274 31.366-33.232 41.2-12.91 9.834-33.672 14.776-62.294 14.776-26.478 0-47.844-5.33-64.104-16.038-16.316-10.656-24.392-23.564-24.392-38.616 0-9.336 2.746-17.414 8.292-24.17 5.492-6.814 13.126-12.58 22.852-17.468 9.612-4.892 19.444-8.682 29.386-11.536 9.886-2.694 26.258-6.756 49.11-12.030 28.564-6.152 54.438-12.966 77.618-20.378 23.182-7.416 42.902-16.426 59.162-26.974 16.314-10.656 29.004-24.058 38.068-40.262 9.118-16.206 13.678-36.090 13.678-59.656 0-28.112-7.91-53.49-23.674-75.958z" />
<glyph unicode="&#xe626;" glyph-name="spotify" data-tags="spotify" d="M512 939.52c-271.462 0-491.52-220.058-491.52-491.52 0-124.109 45.978-237.466 121.856-323.891 76.902 76.902 182.221 120.064 303.104 116.173 154.214-5.018 275.968-78.029 345.754-196.813 128.256 88.678 212.326 236.749 212.326 404.531 0 271.462-220.058 491.52-491.52 491.52zM752.282 272.794c-8.653-14.336-27.187-18.739-41.472-10.086-113.869 69.53-257.024 85.248-425.677 46.746-16.179-3.738-32.461 6.4-36.096 22.733-3.738 16.128 6.349 32.41 22.63 36.096 184.576 42.189 342.886 23.962 470.579-53.965 14.234-8.704 18.79-27.29 10.035-41.523zM811.622 412.211c-10.906-17.818-34.202-23.347-51.917-12.39-130.253 80.026-328.806 103.219-482.867 56.474-20.019-6.042-41.114 5.274-47.104 25.139-6.042 20.019 5.222 41.114 25.139 47.104 175.974 53.504 394.752 27.597 544.358-64.307 17.766-11.059 23.347-34.202 12.39-52.019zM816.691 556.646c-156.16 92.826-413.747 101.274-562.842 56.064-23.962-7.322-49.254 6.195-56.525 30.157-7.219 23.962 6.298 49.357 30.157 56.525 171.213 51.968 455.68 41.933 635.443-64.819 21.555-12.8 28.672-40.602 15.923-62.157-12.851-21.453-40.602-28.518-62.157-15.77zM442.317 93.286c-69.171 2.202-126.72-24.73-168.755-75.162 70.605-39.27 151.91-61.645 238.438-61.645 41.728 0 82.227 5.222 120.934 15.002-37.069 76.134-101.734 118.938-190.618 121.805z" />
<glyph unicode="&#xe627;" glyph-name="stack-overflow" data-tags="stack-overflow" horiz-adv-x="805" d="M530.286 159.429v-86.286l-404-0.571v86.286zM668 357.143v-400.571l-0.571-20v-0.571l-667.429 0.571v420.571h69.143v-353.143h530.286v353.143h68.571zM137.714 306.857l402.286-37.143-7.429-85.714-402.857 37.143zM176.571 487.429l390.286-104.571-22.286-83.429-390.286 104.571zM269.714 686.857l348-205.714-44-74.286-348 205.714zM475.429 876l227.429-334.286-70.857-48.571-228 333.714zM734.286 960l69.143-398.286-85.143-14.857-69.143 398.286z" />
<glyph unicode="&#xe628;" glyph-name="stumbleupon" data-tags="stumbleupon" horiz-adv-x="1097" d="M606.857 553.143v67.429q0 24-17.143 41.143t-41.143 17.143-41.143-17.143-17.143-41.143v-349.714q0-100-72-170.857t-173.143-70.857q-101.714 0-173.429 71.714t-71.714 173.429v152h187.429v-149.714q0-24.571 17.143-41.429t41.143-16.857 41.143 16.857 17.143 41.429v354.286q0 97.714 72.286 166.857t172.286 69.143q100.571 0 172.571-69.714t72-168v-77.714l-111.429-33.143zM909.714 426.286h187.429v-152q0-101.714-71.714-173.429t-173.429-71.714q-101.143 0-173.143 71.143t-72 171.714v153.143l74.857-34.857 111.429 33.143v-154.286q0-24 17.143-40.857t41.143-16.857 41.143 16.857 17.143 40.857v157.143z" />
<glyph unicode="&#xe629;" glyph-name="soundcloud" data-tags="soundcloud" d="M891.96 445.796c-18.086 0-35.348-3.52-51.064-9.856-10.506 114.358-110.29 204.060-232 204.060-29.786 0-58.682-5.63-84.318-15.164-9.96-3.702-12.578-7.52-12.578-14.916v-402.714c0-7.766 6.24-14.234 14.124-14.996 0.336-0.034 363.536-0.21 365.89-0.21 72.904 0 131.986 56.816 131.986 126.894s-59.134 126.902-132.040 126.902zM400 192h32l16 224.22-16 223.78h-32l-16-223.78zM304 192h-32l-16 162.75 16 157.25h32l16-160zM144 192h32l16 128-16 128h-32l-16-128zM16 256h32l16 64-16 64h-32l-16-64z" />
<glyph unicode="&#xe62a;" glyph-name="tumblr" data-tags="tumblr" d="M572.128 170.364c-16.9 9.824-28.466 22.91-34.7 39.42-6.23 16.39-19.594 53.56-19.594 111.454v162.326h242.896v174.506h-242.894v247.386h-101.964c-6.512-51.544-8.030-68.5-25.154-101.908-17.182-33.352-39.978-77.202-68.388-101.008-28.302-23.812-67.55-47.112-107.36-59.858v-159.124h117.124v-256.486c0-45.706 4.83-80.516 14.544-104.546 9.71-24.088 27.12-46.772 52.274-68.108 25.096-21.282 80.744-49.298 80.744-49.298s44.696-17.294 90.956-17.294c40.766 0 78.778 4.042 113.874 12.128 35.092 8.086 87.2 27.29 130.484 47.446v157.44c-50.758-32.848-114.768-54.352-165.918-54.352-28.918 0-54.52 6.626-76.924 19.876z" />
<glyph unicode="&#xe62b;" glyph-name="vimeo" data-tags="vimeo" d="M968.192 644.941c-51.507-295.526-339.2-545.792-425.728-602.931-86.579-57.139-165.478 22.886-194.15 83.456-32.768 68.966-131.021 443.238-156.774 474.163-25.702 31.078-102.912-30.925-102.912-30.925l-37.427 49.971c0 0 156.774 190.72 276.070 214.528 126.464 25.242 126.259-197.837 156.672-321.69 29.44-119.859 49.203-188.467 74.854-188.467 25.754 0 74.854 66.867 128.666 169.318 53.914 102.554-2.304 193.075-107.622 128.717 42.086 257.434 439.859 319.334 388.352 23.859z" />
<glyph unicode="&#xe62c;" glyph-name="vine" data-tags="vine" d="M919.429 455.429v-113.143q-57.714-13.143-113.143-13.143-37.143-77.714-94.571-154.857t-103.714-123.143-73.143-60.857q-45.714-25.714-92.571 1.714-16 9.714-34.571 24.857t-48.571 47.714-58.571 73.429-61.429 105.143-60.286 139.429-52.286 179.714-40.286 222.857h161.714q14.857-124.571 40-227.714t59.714-181.143 69.429-134.571 80-111.429q96.571 96.571 164 232-81.143 41.143-127.429 125.714t-46.286 190.286q0 109.714 59.429 179.714t162.286 70q101.714 0 156-60.286t54.286-170q0-90.857-33.143-163.429-4-0.571-11.143-1.714t-26.286-1.143-36 3.429-35.429 14.571-28.857 29.429q17.714 58.857 17.714 105.143 0 49.714-16.571 75.429t-45.143 25.714q-30.286 0-48.571-28.286t-18.286-80.286q0-106.286 60-167.714t152.571-61.429q35.429 0 69.143 8z" />
<glyph unicode="&#xe62d;" glyph-name="wordpress" data-tags="wordpress" d="M72.571 448q0 93.143 38.286 178.857l209.714-574.286q-112 54.286-180 160.571t-68 234.857zM808.571 470.286q0-10.857-1.429-22t-5.714-28.286-6.571-25.143-10-33.714-10-33.143l-43.429-146.286-158.857 472q26.286 1.714 50.286 4.571 10.857 1.143 14.857 10.571t-1.429 17.714-16.286 7.714l-117.143-5.714q-42.857 0.571-115.429 5.714-6.857 0.571-11.714-2.857t-6.571-8.571-0.857-10.571 5.143-9.429 11.143-4.571l45.714-4.571 68.571-187.429-96-288-160 475.429q26.286 1.714 50.286 4.571 10.857 1.143 14.857 10.571t-1.429 17.714-16.286 7.714l-117.143-5.714q-4 0-13.143 0.286t-14.857 0.286q60 91.429 156.857 144.857t210 53.429q84 0 160.286-30.286t136.286-85.143h-5.714q-31.429 0-52.571-23.143t-21.143-54.571q0-6.857 1.143-13.714t2.286-12.286 4.571-13.143 5.143-12 6.857-12.857 7.143-12 8.286-13.714 8-13.143q36-61.143 36-121.143zM519.429 409.714l135.429-369.714q0.571-3.429 2.857-6.286-72-25.143-145.714-25.143-64 0-124 18.286zM897.143 658.857q54.286-99.429 54.286-210.857 0-119.429-59.429-220.286t-159.429-159.143l134.286 387.429q33.714 96.571 33.714 157.714 0 24-3.429 45.143zM512 960q104 0 198.857-40.571t163.429-109.143 109.143-163.429 40.571-198.857-40.571-198.857-109.143-163.429-163.429-109.143-198.857-40.571-198.857 40.571-163.429 109.143-109.143 163.429-40.571 198.857 40.571 198.857 109.143 163.429 163.429 109.143 198.857 40.571zM512-40.571q98.857 0 189.429 38.857t156 104.286 104.286 156 38.857 189.429-38.857 189.429-104.286 156-156 104.286-189.429 38.857-189.429-38.857-156-104.286-104.286-156-38.857-189.429 38.857-189.429 104.286-156 156-104.286 189.429-38.857z" />
<glyph unicode="&#xe62e;" glyph-name="yelp" data-tags="yelp" d="M505.714 206.286v-72.571q-0.571-166.857-3.429-174.286-6.857-18.286-29.143-22.857-30.857-5.143-103.714 21.714t-92.857 50.857q-7.429 8.571-9.714 20.571-0.571 6.857 2.286 14.857 2.286 5.714 19.429 26.857t103.429 123.429q0.571 0 34.286 40 8.571 10.857 22.571 14t28.286-2q13.714-5.714 21.429-16.571t7.143-24zM420.571 349.714q-1.714-31.429-29.714-40l-68.571-22.286q-157.143-50.286-166.857-50.286-20 1.143-30.857 20.571-6.857 14.286-9.714 42.857-4.571 43.429 0.571 95.143t17.143 71.143 32 18.286q7.429 0 115.429-44 40-16.571 65.714-26.857l48-19.429q13.143-5.143 20.286-17.429t6.571-27.714zM892.571 180q-4-30.857-52.286-92t-77.429-72.571q-21.143-8-36 4-8 5.714-105.143 164l-26.857 44q-8 12-6.571 26.286t11.143 26.286q20 24.571 47.429 14.857 0.571-0.571 68-22.857 116-37.714 138.286-45.429t26.857-11.714q16-12.571 12.571-34.857zM508.571 541.143q2.857-58.286-30.857-69.714-33.143-9.714-65.143 40.571l-216 341.714q-4.571 20 10.857 35.429 23.429 24.571 118.571 51.143t128.286 18q22.857-5.714 28-25.714 1.714-10.286 12.571-174.571t13.714-216.857zM886.857 479.429q1.714-22.286-14.857-33.714-8.571-5.714-188-49.143-38.286-8.571-52-13.143l0.571 1.143q-13.143-3.429-26.286 2.286t-21.143 18.286q-17.143 26.857 0 49.714 0.571 0.571 42.857 58.286 71.429 97.714 85.714 116.571t19.429 22.286q16 10.857 37.143 1.143 27.429-13.143 70.286-76.286t46.286-95.714v-1.714z" />
<glyph unicode="&#xe62f;" glyph-name="youtube" data-tags="youtube" d="M634.857 249.143v-120.571q0-38.286-22.286-38.286-13.143 0-25.714 12.571v172q12.571 12.571 25.714 12.571 22.286 0 22.286-38.286zM828 248.571v-26.286h-51.429v26.286q0 38.857 25.714 38.857t25.714-38.857zM276 373.143h61.143v53.714h-178.286v-53.714h60v-325.143h57.143v325.143zM440.571 48h50.857v282.286h-50.857v-216q-17.143-24-32.571-24-10.286 0-12 12-0.571 1.714-0.571 20v208h-50.857v-223.429q0-28 4.571-41.714 6.857-21.143 33.143-21.143 27.429 0 58.286 34.857v-30.857zM685.714 132.571v112.571q0 41.714-5.143 56.571-9.714 32-40.571 32-28.571 0-53.143-30.857v124h-50.857v-378.857h50.857v27.429q25.714-31.429 53.143-31.429 30.857 0 40.571 31.429 5.143 15.429 5.143 57.143zM878.857 138.286v7.429h-52q0-29.143-1.143-34.857-4-20.571-22.857-20.571-26.286 0-26.286 39.429v49.714h102.286v58.857q0 45.143-15.429 66.286-22.286 29.143-60.571 29.143-38.857 0-61.143-29.143-16-21.143-16-66.286v-98.857q0-45.143 16.571-66.286 22.286-29.143 61.714-29.143 41.143 0 61.714 30.286 10.286 15.429 12 30.857 1.143 5.143 1.143 33.143zM531.429 660v120q0 39.429-24.571 39.429t-24.571-39.429v-120q0-40 24.571-40t24.571 40zM942.286 230.857q0-133.714-14.857-200-8-33.714-33.143-56.571t-58.286-26.286q-105.143-12-317.143-12t-317.143 12q-33.143 3.429-58.571 26.286t-32.857 56.571q-14.857 64-14.857 200 0 133.714 14.857 200 8 33.714 33.143 56.571t58.857 26.857q104.571 11.429 316.571 11.429t317.143-11.429q33.143-4 58.571-26.857t32.857-56.571q14.857-64 14.857-200zM372 960h58.286l-69.143-228v-154.857h-57.143v154.857q-8 42.286-34.857 121.143-21.143 58.857-37.143 106.857h60.571l40.571-150.286zM583.429 769.714v-100q0-46.286-16-67.429-21.143-29.143-60.571-29.143-38.286 0-60 29.143-16 21.714-16 67.429v100q0 45.714 16 66.857 21.714 29.143 60 29.143 39.429 0 60.571-29.143 16-21.143 16-66.857zM774.857 862.286v-285.143h-52v31.429q-30.286-35.429-58.857-35.429-26.286 0-33.714 21.143-4.571 13.714-4.571 42.857v225.143h52v-209.714q0-18.857 0.571-20 1.714-12.571 12-12.571 15.429 0 32.571 24.571v217.714h52z" />
<glyph unicode="&#xe630;" glyph-name="zerply" data-tags="zerply" d="M348.898 914.668c23.070-5.812 38.966-11.334 58.108-17.488 29.166-5.868 49.906-12.478 76.338-17.034 104.474-22.844 236.13 10.026 324.14 20.68 2.678-7.69 7.918-20.508 7.862-32.812 0-17.492-9.628-38.396-14.754-50.074-21.766-49.39-59.872-74.456-89.61-113.992-63.746-84.31-136.094-167.37-210.438-241.766-44.722-44.834-115.416-102.37-144.81-158.878 122.42-7.234 188.9-84.596 282.782-124.36 36.972-15.608 104.194-43.066 162.074-24.152 21.358 7.006 37.594 23.468 55.142 34.522 4.33-30.992 11.622-68.704 0-100.148-21.762-59.074-99.464-131.822-196.536-100.148-111.428 36.29-175.856 128.518-286.262 169.192-37.256 13.782-79.524 17.318-127.606 17.318-21.648 0-63.688-8.772-72.348-3.474-35.15 51.892 23.472 146.802 44.774 169.25 73.718 77.644 149.026 155.518 213.854 241.764 38.282 50.93 93.768 93.77 124.132 151.99-1.134 0-2.28 0-3.422 0-12.416-8.090-37.542 0.058-55.202-3.474-88.754-17.544-205.308-11.050-203.484 79.47 2.22 19.652 0.396 11.96 13.786 37.996 11.402 21.928 23.76 42.264 41.48 65.618z" />
<glyph unicode="&#xe631;" glyph-name="500px" data-tags="500px" d="M896.512 108.8c-7.232 7.296-13.44 11.52-18.816 13.056-5.44 1.6-10.24 0.448-14.080-3.392l-3.584-3.456c-37.12-37.12-80.64-66.432-128.768-86.848-49.92-21.12-103.040-31.872-157.696-31.872-54.72 0-107.776 10.688-157.76 31.808-48.192 20.352-91.52 49.536-128.768 86.784-38.784 38.784-67.968 82.112-86.848 128.768-18.368 45.568-24.32 79.808-26.24 91.008l-0.512 2.56c-2.56 13.184-14.72 14.080-32.256 11.52-7.296-1.28-29.44-4.608-27.392-20.48v-0.448c5.952-36.928 16.32-73.152 30.912-107.648 23.488-55.36 56.96-105.088 99.84-147.84 42.688-42.752 92.48-76.288 147.84-99.712 57.408-24.32 118.4-36.608 181.248-36.608 62.72 0 123.712 12.288 181.12 36.608 55.424 23.424 105.216 56.96 147.968 99.84 0 0 2.432 2.304 3.712 3.712 4.672 5.12 8.768 14.080-9.856 32.64zM572.928 850.368c-60.032 0-123.904-12.16-170.88-32.448-4.928-1.92-7.936-6.016-8.576-11.712-0.64-5.312 0.832-12.352 4.48-21.568 2.816-7.424 10.56-27.136 25.6-21.44 48 18.304 101.12 28.416 149.376 28.416 54.848 0 108.032-10.88 158.080-32 39.68-16.768 77.248-41.088 118.016-76.416 2.944-2.56 6.144-3.84 9.344-3.84 8 0 15.616 7.68 22.144 15.104 10.88 12.16 18.368 22.4 7.68 32.512-39.040 36.864-81.664 64.448-134.4 86.72-57.28 24.32-118.144 36.48-180.864 36.48zM491.136 342.656c0-6.848 6.272-12.8 9.984-16.384l1.152-1.152c6.4-6.272 12.416-9.472 17.92-9.472 4.736 0 7.552 2.24 8.576 3.2 2.816 2.56 34.56 34.688 37.504 37.76l35.328-35.2c3.328-3.84 6.848-5.568 11.008-5.76 5.632 0 11.776 3.392 18.304 10.048 15.232 15.616 7.68 24 3.84 28.16l-35.84 35.712 37.44 37.632c8.192 8.96 0.96 18.304-6.272 25.6-10.432 10.368-20.48 13.12-27.072 7.040l-37.12-37.12-37.568 37.568c-1.92 1.92-4.48 2.88-7.232 2.88-4.992 0-10.88-3.328-17.6-10.048-11.52-11.52-14.080-19.456-8-25.792l37.568-37.504-37.44-37.312c-3.072-3.072-4.608-6.4-4.48-9.792zM252.864 287.232c0.256-0.64 5.568-15.36 8.64-22.528 16.832-39.936 40.96-75.776 71.808-106.56 30.72-30.72 66.56-54.912 106.432-71.808 41.344-17.472 85.248-26.368 130.56-26.368 45.184 0 89.088 8.96 130.432 26.368 40 16.896 75.84 41.088 106.56 71.808s55.040 66.56 71.872 106.56c17.472 41.344 26.24 85.248 26.24 130.56 0 45.184-8.768 89.088-26.24 130.368-16.896 39.936-41.088 75.776-71.872 106.56-30.72 30.72-66.56 54.912-106.496 71.808-41.28 17.408-85.12 26.24-130.432 26.24-45.76 0-91.52-8.96-132.288-26.24-32.64-13.824-87.68-49.28-120-82.56l-0.192-0.256v275.84h463.36c16.896 0.192 16.896 23.68 16.896 31.488 0 7.68 0 31.36-16.832 31.488h-501.12c-13.568 0-22.016-11.328-22.016-21.888v-388.224c0-12.544 15.616-21.568 30.080-24.704 28.352-6.016 34.88 3.008 41.792 12.608l0.96 1.28c10.624 15.68 43.712 48.96 44.032 49.28 51.52 51.648 120.512 80.192 194.24 80.192 73.344 0 142.208-28.48 193.92-80 51.712-51.84 80.256-120.512 80.256-193.28 0-73.152-28.48-141.824-80-193.28-50.88-50.944-121.984-80.128-195.008-80.128-49.472 0-97.28 13.184-138.24 38.144l0.256 236.032c0 31.36 13.696 65.664 36.48 91.52 26.24 29.568 62.272 45.824 101.568 45.824 38.080 0 73.6-14.464 100.16-40.704 26.24-26.048 40.704-60.8 40.704-97.728 0-78.848-62.080-140.672-141.248-140.672-15.36 0-43.072 6.784-44.16 7.040-16 4.8-22.848-17.408-25.088-24.768-8.64-28.16 4.352-33.728 7.040-34.56 25.472-7.872 42.24-9.408 64-9.408 111.872 0 202.88 91.008 202.88 202.88 0 110.976-90.88 201.216-202.688 201.216-54.656 0-106.048-20.928-144.64-58.88-36.8-36.16-57.92-84.48-57.92-132.288v-1.28c-0.192-5.888-0.256-147.456-0.32-193.92l-0.192 0.256c-21.12 23.232-41.792 58.88-55.552 95.232-5.504 14.272-17.664 11.712-34.304 6.592-7.296-2.176-29.44-8.96-24.512-24.96l0.128-0.192z" />
<glyph unicode="&#xe632;" glyph-name="tribars" data-tags="tribars" d="M957.714 192v-73.143q0-14.857-10.857-25.714t-25.714-10.857h-804.571q-14.857 0-25.714 10.857t-10.857 25.714v73.143q0 14.857 10.857 25.714t25.714 10.857h804.571q14.857 0 25.714-10.857t10.857-25.714zM957.714 484.571v-73.143q0-14.857-10.857-25.714t-25.714-10.857h-804.571q-14.857 0-25.714 10.857t-10.857 25.714v73.143q0 14.857 10.857 25.714t25.714 10.857h804.571q14.857 0 25.714-10.857t10.857-25.714zM957.714 777.143v-73.143q0-14.857-10.857-25.714t-25.714-10.857h-804.571q-14.857 0-25.714 10.857t-10.857 25.714v73.143q0 14.857 10.857 25.714t25.714 10.857h804.571q14.857 0 25.714-10.857t10.857-25.714z" />
<glyph unicode="&#xe633;" glyph-name="etsy" data-tags="etsy" d="M366.592 855.68c0 13.888 1.408 22.208 25.088 22.208h318.592c55.68 0 86.272-47.36 108.48-136.32l18.112-71.040h54.272c9.728 201.792 18.112 289.472 18.112 289.472s-136.32-15.36-217.088-15.36h-407.68l-218.304 7.040v-58.432l73.728-13.952c51.456-9.792 64-20.928 68.16-68.224 0 0 4.16-139.136 4.16-368.64 0-229.632-4.16-367.36-4.16-367.36 0-41.728-16.64-56.96-68.16-66.816l-73.728-13.888v-58.368l218.432 7.040h364.48c82.176 0 272.768-7.040 272.768-7.040 4.16 50.112 32 276.864 36.16 301.888h-51.456l-54.272-123.776c-43.136-97.408-105.728-104.32-175.36-104.32h-207.296c-69.568 0-103.040 27.776-103.040 87.68v317.056s154.496 0 204.608-4.16c39.040-2.752 62.592-13.888 75.136-68.16l16.64-72.32h59.84l-4.16 182.208 8.32 183.68h-59.776l-19.456-80.64c-12.544-52.928-20.928-62.72-75.136-68.224-71.040-7.040-205.952-5.632-205.952-5.632v374.4z" />
<glyph unicode="&#xe634;" glyph-name="facebook-messanger" data-tags="facebook-messanger" d="M512.846 881.296c-239.772 0-434.142-181.094-434.142-404.482 0-127.291 63.133-240.828 161.792-314.972v-154.223l147.818 81.632c39.454-10.988 81.246-16.919 124.532-16.919 239.772 0 434.142 181.094 434.142 404.482s-194.37 404.482-434.142 404.482zM555.99 336.596l-110.558 118.649-215.724-118.649 237.294 253.475 113.253-118.645 213.029 118.645-237.294-253.475z" />
<glyph unicode="&#xe635;" glyph-name="icloud" data-tags="icloud" d="M854.49 488.588l-15.159 3.788v15.159c0 136.353-109.841 246.197-242.409 246.197-98.487 0-189.384-60.607-227.27-151.511l-11.357-26.519-18.94 18.943c-18.947 18.936-45.459 30.3-71.978 30.3-56.813 0-102.265-45.455-102.265-102.268l3.785-22.731-15.152-3.781c-71.968-22.731-121.211-87.12-121.211-159.087 0-90.904 75.759-166.663 166.663-166.663h628.77c87.113 0 162.868 71.978 162.868 162.875-3.771 75.756-56.802 140.151-136.346 155.299z" />
<glyph unicode="&#xe636;" glyph-name="snapchat" data-tags="snapchat" d="M516.821 96.036c-2.125 0-4.149 0.078-5.693 0.151-1.224-0.105-2.487-0.151-3.755-0.151-44.645 0-74.493 21.106-100.838 39.746-18.879 13.333-36.687 25.925-57.548 29.395-10.243 1.701-20.437 2.561-30.284 2.561-17.743 0-31.765-2.752-42-4.754-6.3-1.228-11.732-2.284-15.932-2.284-4.397 0-9.742 0.975-11.967 8.58-1.767 5.997-3.030 11.807-4.254 17.403-3.054 13.978-5.271 22.512-10.508 23.326-55.992 8.64-89.076 21.366-95.666 36.779-0.69 1.616-1.076 3.249-1.162 4.857-0.257 4.598 2.987 8.624 7.515 9.374 44.467 7.326 84.004 30.826 117.524 69.879 25.965 30.235 38.715 59.122 40.084 62.312 0.060 0.143 0.129 0.294 0.203 0.432 6.461 13.109 7.746 24.436 3.832 33.659-7.215 17.015-31.11 24.596-46.919 29.612-3.932 1.244-7.651 2.422-10.613 3.6-14.014 5.534-37.062 17.231-33.991 33.373 2.237 11.772 17.806 19.969 30.388 19.969 3.496 0 6.59-0.615 9.199-1.839 14.219-6.662 27.009-10.038 38.013-10.038 13.682 0 20.29 5.211 21.888 6.692-0.392 7.298-0.874 15.013-1.341 22.311 0 0.008-0.010 0.097-0.010 0.097-3.211 51.087-7.217 114.663 9.046 151.123 48.674 109.137 151.897 117.624 182.363 117.624 0.812 0 13.278 0.123 13.278 0.123 0.563 0.010 1.174 0.018 1.807 0.018 30.553 0 133.991-8.496 182.693-117.695 16.264-36.483 12.253-100.114 9.032-151.255l-0.151-2.447c-0.444-6.944-0.848-13.517-1.194-19.886 1.504-1.387 7.551-6.162 19.856-6.646 10.486 0.402 22.54 3.763 35.812 9.977 4.101 1.928 8.644 2.328 11.73 2.328 4.664 0 9.406-0.907 13.357-2.557l0.213-0.082c11.262-3.999 18.638-11.984 18.797-20.379 0.139-7.824-5.675-19.518-34.274-30.81-2.927-1.162-6.666-2.348-10.613-3.6-15.821-5.020-39.694-12.599-46.911-29.604-3.922-9.223-2.63-20.546 3.832-33.651 0.074-0.143 0.131-0.289 0.203-0.44 1.99-4.664 50.152-114.482 157.608-132.185 4.527-0.754 7.776-4.787 7.519-9.374-0.097-1.648-0.493-3.295-1.19-4.905-6.544-15.327-39.628-28.036-95.637-36.687-5.259-0.812-7.474-9.312-10.5-23.217-1.256-5.748-2.529-11.38-4.27-17.293-1.628-5.565-5.255-8.285-11.075-8.285h-0.877c-3.789 0-9.161 0.688-15.934 2.014-11.837 2.304-25.117 4.449-42.002 4.449-9.843 0-20.033-0.864-30.294-2.561-20.839-3.47-38.641-16.042-57.491-29.365-26.392-18.664-56.255-39.774-100.896-39.774z" />
<glyph unicode="&#xe637;" glyph-name="whatsapp" data-tags="whatsapp" d="M746.56 346.368c-12.8 6.4-75.328 36.992-87.040 41.216-11.648 4.288-20.16 6.4-28.672-6.4-8.448-12.608-32.896-41.152-40.32-49.6s-14.848-9.472-27.52-3.2c-12.8 6.4-53.888 19.84-102.528 62.976-37.888 33.6-63.36 75.136-70.848 87.872-7.424 12.672-0.832 19.52 5.568 25.856 5.76 5.76 12.8 14.848 19.2 22.272 6.272 7.424 8.32 12.672 12.672 21.12 4.224 8.512 2.112 15.872-1.088 22.272s-28.672 68.736-39.296 94.080c-10.24 24.768-20.8 21.376-28.672 21.76-7.36 0.384-15.872 0.448-24.32 0.448-8.576 0-22.4-3.2-34.048-15.808-11.648-12.8-44.544-43.392-44.544-105.792s45.632-122.688 51.968-131.2c6.4-8.448 89.856-136.512 217.6-191.36 30.464-13.12 54.144-20.928 72.704-26.752 30.464-9.6 58.24-8.32 80.192-5.12 24.512 3.712 75.392 30.72 86.016 60.352 10.688 29.632 10.688 55.040 7.488 60.352s-11.648 8.512-24.448 14.848zM514.176 30.72h-0.256c-75.968 0-150.592 20.352-215.68 58.752l-15.36 9.152-160.448-41.856 42.88 155.52-10.24 16c-42.368 67.2-64.768 144.832-64.64 224.512 0 232.512 190.080 421.76 423.872 421.76 113.28-0.128 219.52-44.032 299.52-123.776 80.128-79.68 124.16-185.6 124.16-298.368-0.192-232.512-190.272-421.76-423.872-421.76zM874.816 811.456c-96.32 95.552-224.32 148.416-360.768 148.544-280.896 0-509.568-227.584-509.76-507.392 0-89.408 23.424-176.64 68.032-253.696l-72.32-262.912 270.272 70.528c74.496-40.32 158.336-61.696 243.648-61.76h0.256c280.96 0 509.696 227.648 509.824 507.52 0 135.488-52.928 263.040-149.12 358.912z" />
<glyph unicode="&#xe638;" glyph-name="html5-box" data-tags="html5-box" horiz-adv-x="805" d="M645.714 618.857l9.143 100h-505.143l26.857-305.143h349.714l-12.571-130.286-112.571-30.286-112 30.286-7.429 80h-100l12.571-158.857 206.857-57.143h2.286v0.571l205.143 56.571 28.571 310.857h-368l-8.571 103.429h385.143zM0 886.857h804.571l-73.143-821.714-330.286-92.571-328 92.571z" />
<glyph unicode="&#xe639;" glyph-name="css3-box" data-tags="css3-box" d="M115.225 879.922l74.424-805.967 322.343-86.728 322.329 86.728 74.453 805.967h-793.548zM748.958 618.707l-237.827-101.668h229.502l-26.27-301.855-202.286-59.036-0.35 0.14v-0.14l-203.422 60.148-13.138 152.034h100.993l6.565-78.767 108.060-27.302 0.937 0.285v-0.148l111.886 31.518 7.618 126.903-342.615 1.031-7.636 95.194 244.186 101.65h-252.933l-12.015 97.369h498.633l-9.89-97.353z" />
<glyph unicode="&#xe900;" glyph-name="meerkat" data-tags="meerkat" d="M325.449 844.983c67.273 20.208 139.231 31.788 208.725 16.756 47.065-10.102 90.19-34.499 126.167-65.795 43.616-36.719 85.265-75.901 125.187-116.313 9.361-8.873 18.232-18.235 28.585-25.629 20.455-14.538 40.66-30.065 64.071-39.181 14.541-6.408 30.313-7.146 45.098-12.075 31.048-9.366 63.581-22.918 82.064-51.012 14.29-20.208 10.593-46.576 8.127-69.493-4.929-38.689-21.681-78.363-54.95-100.543-30.067-22.422-61.121-43.617-94.874-59.881-39.183-19.222-81.32-32.282-124.445-39.183-54.215-8.868-109.917-5.174-163.874-15.769-9.858-1.48-18.979-8.133-21.934-17.739-19.714-61.361-15.773-126.909-11.831-190.242h-66.038c-2.962 49.038-5.675 98.572 1.232 147.364 4.675 29.822 9.857 60.867 26.119 86.742 14.54 23.662 42.139 34.5 68.258 39.921 62.103 11.829 126.661 4.929 188.266 20.453 2.22 0.74 5.424 0 6.41 2.959-34.249 11.088-67.024 26.364-97.587 45.095-11.577 6.16-10.593 25.136 1.727 29.571 8.626 4.191 16.755-1.723 23.411-6.408 39.68-22.429 82.554-39.92 127.16-49.285 36.469 14.042 68.749 37.704 100.29 60.622-22.425 34.751-44.602 71.714-54.702 112.618-38.69 14.291-73.68 38.194-105.718 64.070-25.629 23.41-49.53 48.793-75.159 72.45-23.902 22.918-48.796 44.85-74.174 66.288-28.093 23.657-62.102 40.907-98.326 48.3-41.153 8.625-83.785 4.437-124.691-4.682-46.335-10.595-90.931-27.354-134.556-45.836-30.309-13.308-60.624-26.614-88.464-44.603-25.133-16.017-48.302-36.47-63.329-62.592-16.266-27.847-21.195-60.622-21.195-92.657 2.465-61.608 21.436-120.998 29.82-182.106 16.017-101.778 18.482-205.278 16.758-308.285h-66.046c-0.741 30.31 2.955 60.625 0 90.929 0.248 98.82-11.089 197.143-32.036 293.498-7.64 38.196-14.538 76.886-13.801 115.821-0.494 39.428 9.857 78.857 29.819 112.862 23.411 40.168 59.142 71.712 98.323 96.106 34.748 21.195 72.447 36.719 110.15 51.998 23.664 9.117 47.561 17.988 71.962 24.887zM277.151 675.442c31.539 3.451 63.325-7.639 88.96-25.875 24.398-17.99 44.602-42.384 56.184-70.478 2.717-10.104 9.609-22.918 1.485-32.283-6.16-7.393-19.228-4.927-22.923 3.944-5.911 19.466-20.452 34.991-34.987 49.037-20.458 18.236-47.073 32.283-75.16 31.298-25.875-0.493-49.039-14.539-68.020-31.050-19.22-17.251-33.019-41.646-33.019-67.768-0.982-42.632 26.124-81.069 59.633-104.733 11.34-8.869 1.482-28.583-12.567-24.641-57.172 23.903-97.339 86.742-89.697 149.088 6.16 47.806 40.909 88.222 83.042 109.66 14.783 7.145 30.802 12.074 47.069 13.799zM614.506 632.318c19.469 15.771 49.041 16.262 69.491 2.218 18.237-11.337 27.603-34.993 21.686-55.693-7.881-30.803-45.337-48.054-74.418-36.718-5.419 1.48-9.858 5.177-14.786 6.9-12.069-0.985-24.151 0.246-36.222 1.726-7.148 1.231-8.38 12.32-1.231 14.786 7.14 0.49 14.294-0.248 21.436-0.494 1.231 3.696-2.714 6.654-3.206 10.351-7.639 19.958 0.249 44.108 17.249 56.924z" />
<glyph unicode="&#xe901;" glyph-name="delicious" data-tags="delicious" horiz-adv-x="1025" d="M512.513 448h-512v-512h512v512zM1024.513 960h-512v-512h512v512z" />
<glyph unicode="&#xe906;" glyph-name="bing" data-tags="bing" d="M335.36-64l-232.96 163.392v860.608l234.496-71.808v-578.688l-227.712-202.88 555.712 292.288-154.112 69.76-104.32 225.92 515.136-157.632v-251.648l-586.24-349.312z" />
<glyph unicode="&#xe907;" glyph-name="disqus" data-tags="disqus" d="M530.688-49.28c-121.728 0-232.96 44.48-318.976 118.016l-211.712-28.928 81.792 201.92c-28.48 62.912-44.48 132.672-44.48 206.272 0 274.56 220.8 497.28 493.44 497.28 272.32 0 493.248-222.72 493.248-497.28 0-274.688-220.8-497.28-493.312-497.28zM800.128 449.408v1.408c0 143.488-101.248 245.76-275.712 245.76h-188.416v-497.28h185.6c175.808 0 278.4 106.624 278.4 250.112zM526.4 321.536h-55.040v252.8h55.040c80.96 0 134.72-46.080 134.72-125.696v-1.28c0-80.384-53.76-125.824-134.656-125.824z" />
<glyph unicode="&#xe908;" glyph-name="flipboard" data-tags="flipboard" horiz-adv-x="1025" d="M0.513 960h330.241v-1024h-330.241v1024zM363.841 596.672h330.239v-330.239h-330.239v330.239zM363.841 960h660.672v-330.241h-660.672v330.241z" />
<glyph unicode="&#xe909;" glyph-name="google" data-tags="google" d="M522.24 521.152v-175.552h290.368c-11.712-75.328-87.68-220.8-290.368-220.8-174.72 0-317.44 144.64-317.44 323.2s142.72 323.2 317.44 323.2c99.456 0 166.016-42.24 204.16-78.912l138.88 133.888c-89.216 83.264-204.8 133.824-343.040 133.824-283.072 0-512-228.928-512-512s228.928-512 512-512c295.488 0 491.52 207.744 491.52 500.288 0 33.664-3.648 59.264-8.064 84.864h-483.456z" />
<glyph unicode="&#xe90a;" glyph-name="houzz" data-tags="houzz" d="M807.68 448v-341.312l-295.68-170.688v341.376l-295.68-170.752v682.752l295.68 170.624v-341.376l-295.552-170.624 295.552-170.624v341.248l295.68 170.752v-341.376z" />
<glyph unicode="&#xe90b;" glyph-name="medium" data-tags="medium" horiz-adv-x="1025" d="M341.824 48.896c0-29.056-21.248-42.24-47.232-29.248l-265.727 132.865c-15.553 7.808-28.352 28.479-28.352 45.887v651.391c0 23.232 17.024 33.728 37.76 23.36l302.401-151.232c0.832-0.32 1.472-0.96 1.92-1.728l117.504-190.72 206.528 335.553c8.064 13.12 24.768 19.2 39.232 15.040 1.535-0.32 3.008-0.896 4.607-1.6l1.152-0.513 309.184-154.752c0.32-0.128 0.64-0.32 0.832-0.641 1.792-1.28 2.88-3.456 2.88-5.761v-667.902c0-29.185-25.408-40.128-56.703-24.511l-625.986 313.087v-288.575z" />
<glyph unicode="&#xe90c;" glyph-name="patreon" data-tags="patreon" horiz-adv-x="1025" d="M0.513 462.080c0 238.528 193.728 462.080 449.153 494.081 183.040 21.311 321.471-48.96 417.279-140.544 89.343-85.12 142.591-193.792 155.392-321.601 10.624-127.808-17.024-238.592-91.519-343.040-74.497-102.144-221.44-215.040-404.48-215.040h-249.089v492.033c2.176 108.608 38.401 202.369 170.24 247.040 115.008 34.112 249.152-29.76 289.6-151.169 42.495-129.92-19.2-217.281-91.52-270.528-72.449-53.248-185.28-53.248-259.84-2.113v-168.32c49.024-23.36 110.72-29.76 155.52-27.52 161.665 23.359 287.361 114.944 340.481 253.439 55.423 146.88 17.088 317.248-97.92 423.68-138.24 112.962-289.472 140.61-451.201 61.825-112.832-57.472-191.616-174.591-210.816-302.335v-555.968h-119.167l-2.113 526.080z" />
<glyph unicode="&#xe90d;" glyph-name="periscope" data-tags="periscope" d="M517.76-64c80 0 397.44 360.064 397.44 601.408 0 231.040-180.48 422.592-397.44 422.592-228.48 0-408.96-191.488-408.96-422.592 0-241.28 317.44-601.408 408.96-601.408zM453.952 795.904c20.672 5.12 42.432 7.872 65.024 7.872 128.512 0 238.4-108.8 238.4-249.984 0-127.232-109.888-236.032-238.4-236.032-142.592 0-252.48 108.8-252.48 236.032 0 59.392 19.456 113.024 52.608 155.264v-0.768c0-52.736 43.136-95.488 96.384-95.488s96.512 42.816 96.512 95.552c0 39.168-23.872 72.832-57.984 87.552z" />
<glyph unicode="&#xe90e;" glyph-name="pocket" data-tags="pocket" d="M802.112 506.24l-240.832-231.040c-13.632-13.056-31.104-19.584-48.64-19.584-17.472 0-35.008 6.528-48.64 19.584l-240.768 231.040c-27.968 26.752-28.8 71.232-2.048 99.2 26.88 28.032 71.296 28.928 99.2 2.112l192.32-184.32 192.32 184.32c27.904 26.88 72.32 25.92 99.2-2.048s25.92-72.32-2.048-99.2zM1018.944 828.032c-13.248 36.608-48.32 61.184-87.232 61.184h-838.912c-38.4 0-73.216-24.064-86.848-59.904-4.032-10.624-6.080-21.76-6.080-32.96v-308.992l3.52-61.44c14.848-139.776 87.36-261.888 199.68-347.072 1.92-1.536 4.032-3.008 6.080-4.48l1.28-0.96c60.16-43.968 127.488-73.728 200.192-88.448 33.536-6.72 67.84-10.24 101.888-10.24 31.488 0 63.104 2.944 94.208 8.704 3.712 0.832 7.424 1.472 11.2 2.368 1.024 0.128 2.112 0.64 3.2 1.152 69.632 15.168 134.272 44.16 192.256 86.528l1.28 0.896 6.144 4.608c112.256 85.12 184.768 207.36 199.68 347.072l3.456 61.44v308.864c0 10.688-1.28 21.312-5.12 31.68z" />
<glyph unicode="&#xe90f;" glyph-name="quora" data-tags="quora" horiz-adv-x="1025" d="M543.873 161.535c-35.457 69.761-77.056 140.353-158.272 140.353-15.488 0-31.040-2.559-45.249-8.96l-27.52 55.040c33.536 28.928 87.872 51.84 157.696 51.84 108.608 0 164.353-52.479 208.64-119.168 26.241 56.96 38.657 134.016 38.657 229.441 0 238.336-74.497 360.703-248.577 360.703-171.519 0-245.76-122.367-245.76-360.703 0-237.057 74.241-358.144 245.76-358.144 27.265 0 51.968 2.944 74.625 9.599v0zM586.432 78.336c-37.632-10.048-77.568-15.616-117.12-15.616-228.48 0-452.16 182.272-452.16 447.36 0.001 267.52 223.617 449.92 452.097 449.92 232.32 0 453.761-180.992 453.761-449.92 0-149.569-69.761-271.104-171.201-349.695 32.64-49.088 66.432-81.728 113.408-81.728 51.2 0 71.936 39.553 75.393 70.657h66.816c3.84-41.408-16.832-213.376-203.521-213.376-112.96 0-172.8 65.537-217.599 142.336l0.127 0.064z" />
<glyph unicode="&#xe910;" glyph-name="slack" data-tags="slack" d="M990.208 413.184c-11.315 35.963-42.322 60.948-84.992 60.416-16.152-0.203-30.767-3.959-44.823-8.877-22.694-7.941-67.817-22.867-67.817-22.867s-31.101 98.29-47.243 146.845c-3.701 11.133-11.125 33.379-11.125 33.379s24.786 9.41 38.079 13.070c23.742 6.536 48.376 12.273 68.417 24.818 28.365 17.756 49.93 55.818 36.864 99.328-10.772 35.86-41.769 61.297-82.944 61.44-22.411 0.081-41.85-6.787-60.798-14.326-17.076-6.794-51.842-17.418-51.842-17.418s-10.181 23.559-13.924 36.569c-6.823 23.716-12.251 48.927-24.988 68.903-18.166 28.488-54.948 50.217-99.328 36.864-35.953-10.813-61.44-41.605-61.44-82.944 0-20.051 5.581-37.712 12.178-54.812 7.379-19.126 19.566-57.828 19.566-57.828l-179.2-59.392c0 0-14.127 38.372-19.831 59.010-4.66 16.858-9.984 33.44-19.081 47.486-17.91 27.658-56.842 49.684-100.352 35.84-34.826-11.080-60.754-43.121-60.416-83.968 0.174-20.644 8.243-39.946 14.336-58.368 6.001-18.135 12.247-35.922 18.432-53.248-56.832-24.75-136.315-26.849-146.432-98.304v-27.648c11.049-45.046 45.322-83.128 102.4-72.704 32.41 5.919 97.28 31.744 97.28 31.744l59.392-180.224c0 0-75.428-19.016-106.496-38.912-28.375-18.176-50.125-55.357-35.84-100.352 11.305-35.604 42.086-61.85 84.992-60.416 39.537 1.321 74.67 26.020 111.616 32.768 14.52-34.058 17.408-76.462 37.888-107.52 18.084-27.433 56.986-49.961 101.376-34.816 33.997 11.592 60.795 43.418 59.392 84.992-1.31 38.984-27.146 74.568-32.768 111.616 60.836 19.036 120.361 39.383 181.248 58.368 19.958-56.105 24.228-120.658 79.872-141.312 63.498-23.572 125.317 25.61 117.76 93.184-1.956 17.449-10.906 34.642-16.384 51.2-5.591 16.906-9.38 33.874-16.384 50.176 32.338 16.589 75.817 17.644 107.52 37.888 27.525 17.572 49.285 57.62 35.84 100.352zM446.464 329.216l-58.368 181.248 180.224 57.344 59.392-179.2-181.248-59.392z" />
<glyph unicode="&#xe911;" glyph-name="twitch" data-tags="twitch" horiz-adv-x="1025" d="M89.665 960l-66.753-178.112v-712.321h244.736v-133.567h133.631l133.441 133.631h200.321l267.071 267.008v623.361h-912.448zM178.625 871.040h734.528v-489.792l-155.841-155.84h-244.8l-133.44-133.441v133.441h-200.448v645.631zM423.553 425.727h88.96v267.072h-88.96v-267.072zM668.289 425.727h88.96v267.072h-88.96v-267.072z" />
<glyph unicode="&#xe912;" glyph-name="vk" data-tags="vk" d="M500.992 158.336h61.248s18.432 2.048 27.904 12.16c8.768 9.408 8.512 26.88 8.512 26.88s-1.28 82.176 36.864 94.272c37.568 11.968 85.76-79.36 136.96-114.432 38.656-26.624 68.032-20.864 68.032-20.864l136.768 1.92s71.488 4.48 37.568 60.672c-2.752 4.608-19.712 41.6-101.632 117.632-85.76 79.616-74.368 66.752 28.928 204.416 62.912 83.84 88.064 135.040 80.192 156.928-7.488 20.864-53.76 15.36-53.76 15.36l-153.984-0.96s-11.52 1.6-19.84-3.456c-8.32-4.928-13.632-16.512-13.632-16.512s-24.32-64.832-56.96-120.064c-68.48-116.48-96-122.56-107.136-115.328-26.048 16.896-19.52 67.712-19.52 103.808 0 112.832 17.088 159.872-33.28 172.032-16.832 4.032-29.12 6.72-71.936 7.168-55.040 0.64-101.44-0.192-127.744-13.056-17.536-8.576-31.040-27.712-22.848-28.8 10.24-1.28 33.28-6.208 45.44-22.848 15.872-21.44 15.36-69.632 15.36-69.632s8.96-132.8-21.12-149.312c-20.864-11.328-49.28 11.776-110.464 117.376-31.36 54.080-54.912 113.92-54.912 113.92s-4.608 11.136-12.8 17.152c-9.792 7.232-23.552 9.6-23.552 9.6l-146.368-1.088s-21.888-0.64-29.952-10.24c-7.168-8.448-0.64-25.984-0.64-25.984s114.56-267.968 244.352-403.072c118.912-123.84 253.952-115.712 253.952-115.712z" />
<glyph unicode="&#xe913;" glyph-name="wikipedia" data-tags="wikipedia" d="M514.816 384.128c-39.872-82.24-94.4-193.664-121.472-243.84-26.24-45.76-48-39.68-65.28-1.28-59.84 141.44-182.784 389.376-240.64 528.384-10.688 25.6-18.752 42.048-26.368 48.512-7.68 6.4-23.552 10.24-47.744 11.52-8.96 1.088-13.312 3.264-13.312 6.784v19.392l2.176 1.92c39.36 0.192 230.016 0 230.016 0l2.176-1.92v-18.432c0-5.12-3.2-7.552-9.6-7.552l-24-0.96c-20.608-0.896-30.912-7.040-30.912-18.432 0-5.312 2.176-14.080 7.040-25.6 46.080-112.32 205.184-448 205.184-448l5.76-1.472 102.656 204.8c-12.544 27.648-20.48 45.44-20.48 45.44l-70.656 138.304s-13.568 27.712-18.24 36.928c-30.976 61.44-30.272 64.64-61.632 68.864-8.768 1.152-13.312 2.24-13.312 6.592v19.52l2.56 1.92h182.784l4.8-1.536v-19.328c0-4.48-3.2-6.656-9.6-6.656l-13.184-1.92c-33.472-2.56-28.032-16.256-5.76-60.544l67.648-138.432 74.88 149.312c12.48 27.264 9.92 34.112 4.736 40.448-2.944 3.52-12.928 9.28-34.56 10.112l-8.512 0.96c-2.176 0-4.16 0.64-6.144 2.176-1.92 1.28-2.944 3.2-2.944 5.44v18.368l2.56 1.92c53.12 0.32 172.16 0 172.16 0l2.048-1.92v-18.56c0-5.12-2.88-7.552-8.512-7.552-27.712-1.28-33.408-4.032-43.52-18.688-5.568-7.936-16.512-25.088-27.84-44.288l-97.28-181.952-2.752-5.76 118.912-243.2 7.232-2.048 187.264 444.48c6.528 17.92 5.504 30.72-2.816 38.080-8.32 7.296-14.336 11.648-36.032 12.544l-17.6 0.768c-2.112 0-4.16 0.768-6.144 2.24-1.92 1.408-2.944 3.2-2.944 5.44v18.56l2.688 1.792h211.584l2.176-1.92v-18.432c0-5.12-2.88-7.552-8.512-7.552-27.712-1.28-48.256-7.296-61.568-17.92-13.44-10.88-23.68-25.792-31.232-45.184 0 0-172.16-394.24-231.168-525.312-22.592-42.88-44.8-39.040-64.256 1.28-24.32 50.304-75.136 161.28-112.384 243.328z" />
<glyph unicode="&#xe914;" glyph-name="by" data-tags="by" d="M511.088 960c143.808 0 265.12-49.36 363.872-148.112 99.328-99.36 149.040-220.656 149.040-363.888 0-143.856-48.784-263.632-146.32-359.296-103.616-101.792-225.808-152.704-366.592-152.704-138.384 0-258.448 50.32-360.224 150.88-100.56 100.576-150.864 220.928-150.864 361.12 0 140.176 50.304 261.472 150.88 363.872 98.752 98.768 218.784 148.128 360.208 148.128zM512.912 867.648c-116.4 0-214.848-40.848-295.312-122.512-83.52-85.344-125.264-184.4-125.264-297.152 0-113.376 41.44-211.52 124.32-294.352 82.912-82.928 181.632-124.336 296.224-124.336 113.968 0 213.344 41.712 298.064 125.248 80.464 77.408 120.688 175.216 120.688 293.488 0 116.416-40.848 215.44-122.496 297.136-81.664 81.648-180.416 122.48-296.224 122.48zM650.064 575.088v-209.36h-58.496v-248.656h-159.088v248.64h-58.496v209.376c0 9.152 3.2 16.912 9.6 23.312 6.4 6.384 14.192 9.6 23.312 9.6h210.304c8.512 0 16.16-3.2 22.848-9.6 6.64-6.4 10.016-14.176 10.016-23.312zM440.672 706.736c0 48.128 23.76 72.224 71.328 72.224s71.312-24.064 71.312-72.224c0-47.536-23.776-71.312-71.312-71.312s-71.328 23.776-71.328 71.312z" />
<glyph unicode="&#xe915;" glyph-name="cc" data-tags="cc" d="M511.072 960c143.216 0 265.152-50 365.696-149.952 48.144-48.144 84.72-103.168 109.696-165.024 25.008-61.872 37.536-127.536 37.536-197.024 0-70.096-12.352-135.776-37.008-196.992-24.688-61.248-61.12-115.376-109.248-162.304-49.968-49.36-106.656-87.168-170.064-113.376-63.376-26.208-128.928-39.312-196.56-39.312-67.664 0-132.416 12.928-194.304 38.864-61.856 25.888-117.328 63.376-166.4 112.432s-86.4 104.368-112 165.952c-25.6 61.568-38.4 126.448-38.4 194.736 0 67.664 12.944 132.72 38.848 195.2s63.552 118.4 112.912 167.776c97.52 99.328 217.28 149.024 359.296 149.024zM512.928 867.648c-117.008 0-215.472-40.848-295.328-122.512-40.24-40.848-71.168-86.704-92.8-137.6-21.664-50.896-32.464-104.080-32.464-159.552 0-54.864 10.8-107.728 32.464-158.608 21.648-50.944 52.56-96.336 92.8-136.256 40.224-39.936 85.616-70.384 136.24-91.44 50.576-21.024 103.616-31.552 159.088-31.552 54.848 0 108 10.64 159.568 31.984 51.52 21.36 97.936 52.128 139.424 92.336 79.824 78.016 119.728 175.84 119.728 293.504 0 56.688-10.352 110.32-31.072 160.912-20.688 50.592-50.896 95.68-90.464 135.328-82.352 82.304-181.376 123.456-297.184 123.456zM506.512 533.008l-68.592-35.664c-7.328 15.216-16.304 25.904-26.96 32-10.672 6.080-20.576 9.136-29.728 9.136-45.696 0-68.576-30.16-68.576-90.512 0-27.424 5.792-49.344 17.36-65.808 11.584-16.464 28.656-24.704 51.216-24.704 29.872 0 50.896 14.64 63.088 43.888l63.072-32c-13.408-24.992-32-44.656-55.76-58.976-23.744-14.336-49.984-21.504-78.64-21.504-45.712 0-82.608 14-110.64 42.064-28.032 28.032-42.048 67.040-42.048 117.008 0 48.768 14.176 87.456 42.512 116.112 28.336 28.64 64.144 42.976 107.44 42.976 63.408 0.048 108.816-24.64 136.256-74.016zM801.824 533.008l-67.664-35.664c-7.312 15.216-16.336 25.904-26.976 32-10.704 6.080-20.928 9.136-30.624 9.136-45.712 0-68.592-30.16-68.592-90.512 0-27.424 5.792-49.344 17.376-65.808s28.624-24.704 51.216-24.704c29.824 0 50.88 14.64 63.040 43.888l64-32c-14-24.992-32.912-44.656-56.656-58.976-23.76-14.336-49.664-21.504-77.696-21.504-46.336 0-83.344 14-111.040 42.064-27.776 28.032-41.648 67.040-41.648 117.008 0 48.768 14.16 87.456 42.512 116.112 28.336 28.64 64.144 42.976 107.408 42.976 63.408 0.048 108.528-24.64 135.344-74.016z" />
<glyph unicode="&#xe916;" glyph-name="nc-eu" data-tags="nc-eu" d="M875.28 811.536c-99.088 98.976-220.432 148.464-363.936 148.464-141.84 0-261.872-49.456-360.128-148.464-100.832-102.416-151.216-223.568-151.216-363.536 0-139.92 50.384-260.256 151.216-360.944 100.816-100.72 220.832-151.056 360.128-151.056 140.944 0 263.12 50.8 366.512 152.336 97.424 96.432 146.144 216.32 146.144 359.664-0.016 143.376-49.6 264.576-148.72 363.536zM811.184 154.88c-84.576-83.616-184.128-125.392-298.56-125.392-114.496 0-213.2 41.392-296.064 124.176s-124.32 180.912-124.32 294.352c0 48 7.584 93.392 22.56 136.16l135.664-60.064h-9.776v-60.848h48.016c0-8.608-0.864-17.168-0.864-25.728v-14.592h-47.152v-60.848h55.696c7.728-45.44 24.88-82.32 48-111.44 48-63.44 125.152-97.68 209.152-97.68 54.88 0 104.512 16.272 133.696 32.56l-20.592 95.104c-18-9.424-58.272-22.272-97.664-22.272-42.88 0-83.12 12.848-110.56 43.696-12.848 14.56-22.288 34.304-28.288 60h186.336l264.784-117.2c-18.304-32.464-41.584-62.496-70.064-89.984zM478.192 422.976l-1.12 0.864 1.936-0.864h-0.816zM637.632 463.28h7.664v60.848h-145.12l-58.96 26.080c5.072 11.408 11.072 21.616 18.096 29.6 26.576 32.624 64.272 46.32 105.424 46.32 37.712 0 72.848-11.136 95.12-20.56l24 97.728c-30.88 13.68-76.288 25.68-128.56 25.68-80.56 0-149.136-32.56-198-87.408-10.848-12.528-20.256-26.592-28.784-41.456l-168.368 74.512c16.32 24.464 35.504 47.952 57.728 70.368 80.336 81.92 178.56 122.896 294.784 122.896 116.16 0 214.864-40.96 296.032-122.896 81.968-81.056 122.976-180.032 122.976-296.992 0-38.512-4.336-74.848-12.992-109.12l-281.040 124.4z" />
<glyph unicode="&#xe917;" glyph-name="nc-jp" data-tags="nc-jp" d="M875.328 811.536c-99.136 98.976-220.416 148.464-364 148.464-141.808 0-261.856-49.488-360.080-148.464-100.848-102.416-151.248-223.584-151.248-363.536 0-139.936 50.4-260.288 151.248-360.976 100.784-100.688 220.832-151.024 360.080-151.024 140.992 0 263.184 50.768 366.544 152.32 97.424 96.416 146.128 216.336 146.128 359.68 0 143.36-49.568 264.544-148.672 363.536zM811.216 154.88c-84.592-83.632-184.128-125.424-298.576-125.424-114.496 0-213.184 41.392-296.048 124.176-82.88 82.736-124.304 180.88-124.304 294.368 0 43.648 6.256 85.088 18.624 124.432l262.128-116.72h-57.68v-79.696h119.936l11.728-24.336v-38.624h-131.664v-79.68h131.664v-115.744h127.408v115.744h132.496v73.664l167.152-74.432c-17.104-27.84-38.048-53.76-62.864-77.728zM693.392 313.056h-118.928v38.624l6 11.648 112.928-50.272zM706.944 419.056v36.656h-79.664l130 239.504h-135.872l-89.52-198.208-47.504 21.152-81.808 177.056h-135.856l56.384-105.248-169.056 75.28c17.568 27.856 38.784 54.448 63.808 79.728 80.32 81.92 178.56 122.88 294.784 122.88 116.16 0 214.864-40.96 296.032-122.88 82.016-81.072 123.008-180.048 123.008-296.976 0-43.312-5.472-83.856-16.336-121.712l-208.4 92.768z" />
<glyph unicode="&#xe918;" glyph-name="nc" data-tags="nc" d="M511.056 960c143.84 0 265.152-49.36 363.904-148.096 99.328-98.752 149.040-220.048 149.040-363.904 0-143.872-48.768-263.632-146.32-359.328-103.6-101.792-225.824-152.672-366.624-152.672-138.976 0-259.024 50.592-360.192 151.744-100.56 100.592-150.864 220.656-150.864 360.256 0 140.192 50.304 261.488 150.864 363.888 98.736 98.736 218.8 148.112 360.192 148.112zM115.2 586.048c-15.232-42.048-22.864-88.080-22.864-138.064 0-113.376 41.44-211.52 124.32-294.384 83.504-82.32 182.256-123.456 296.224-123.456 115.216 0 214.544 41.728 298.096 125.264 29.856 28.64 53.312 58.512 70.352 89.632l-192.896 85.936c-6.752-32.32-23.024-58.656-48.912-79.056-25.968-20.416-56.56-32.192-91.904-35.2v-78.64h-59.44v78.64c-56.688 0.576-108.512 20.992-155.424 61.232l70.4 71.312c33.504-31.072 71.616-46.608 114.288-46.608 17.664 0 32.768 3.936 45.28 11.888 12.48 7.904 18.752 20.992 18.752 39.312 0 12.816-4.576 23.152-13.728 31.088l-49.344 21.024-60.336 27.44-81.376 35.664-261.488 116.976zM512.912 868.576c-116.4 0-214.848-41.136-295.312-123.424-20.128-20.128-39.024-42.992-56.688-68.592l195.664-87.76c8.528 26.816 24.672 48.304 48.464 64.448 23.744 16.144 51.488 25.136 83.216 26.976v78.64h59.44v-78.64c46.944-2.448 89.6-18.288 128-47.536l-66.752-68.576c-28.688 20.112-57.904 30.16-87.776 30.16-15.856 0-30.032-3.056-42.496-9.136-12.496-6.096-18.752-16.464-18.752-31.088 0-4.272 1.52-8.528 4.56-12.8l109.728-49.392 82.288-36.56 262.352-117.008c8.56 35.968 12.832 72.512 12.832 109.696 0 117.648-40.848 216.688-122.496 297.168-81.104 82.288-179.888 123.424-296.272 123.424z" />
<glyph unicode="&#xe919;" glyph-name="nd" data-tags="nd" d="M511.088 960c143.216 0 264.496-49.68 363.872-149.040 99.328-98.752 149.040-219.728 149.040-362.96 0-143.264-48.784-263.312-146.32-360.224-102.992-101.184-225.216-151.776-366.592-151.776-138.384 0-258.448 50.288-360.224 150.88-100.56 100.544-150.864 220.896-150.864 361.104 0 139.568 50.304 260.56 150.864 362.96 99.344 99.376 219.424 149.056 360.224 149.056zM512.912 867.648c-116.4 0-214.848-41.152-295.312-123.44-83.52-84.736-125.264-183.472-125.264-296.208 0-114 41.44-212.112 124.32-294.4 82.896-82.912 181.632-124.336 296.224-124.336 113.968 0 213.344 41.728 298.064 125.248 80.464 78.016 120.688 175.824 120.688 293.488 0 117.008-40.848 215.76-122.496 296.208-81.072 82.32-179.824 123.44-296.224 123.44zM705.84 568.704v-87.776h-372.112v87.776h372.112zM705.84 404.112v-87.728h-372.112v87.728h372.112z" />
<glyph unicode="&#xe91a;" glyph-name="pd" data-tags="pd" d="M511.088 960c143.808 0 265.28-49.536 364.32-148.576 99.056-99.040 148.592-220.176 148.592-363.424 0-143.264-48.784-263.008-146.32-359.296-102.992-101.792-225.216-152.704-366.592-152.704-139.008 0-258.912 50.32-359.776 150.88-100.896 100.576-151.312 220.928-151.312 361.12 0 140.176 50.304 261.472 150.864 363.872 98.752 98.768 218.8 148.128 360.224 148.128zM512.464 867.648c-116.112 0-214.416-40.848-294.848-122.512-83.52-84.736-125.264-183.776-125.264-297.152s41.44-211.52 124.336-294.352c82.896-82.928 181.632-124.336 296.224-124.336s213.936 41.712 298.064 125.248c80.464 78.032 120.688 175.84 120.688 293.488 0 117.024-40.848 216.064-122.48 297.136-81.712 81.648-180.624 122.48-296.72 122.48zM271.536 309.024v283.424h140.8c69.472 0 104.224-31.984 104.224-96 0-10.976-1.68-21.472-5.024-31.552-3.344-10.064-9.152-20.096-17.376-30.176-8.224-10.064-20.56-18.288-37.024-24.688-16.432-6.368-35.936-9.6-58.48-9.6h-55.776v-91.44l-71.328 0.032zM341.936 539.44v-85.952h60.336c14.624 0 25.6 4.128 32.928 12.352 7.328 8.208 10.992 18.432 10.992 30.64 0 28.64-15.248 42.976-45.728 42.976l-58.528-0.016zM535.744 309.024v283.424h109.728c45.088 0 80.432-11.584 106.080-34.736 25.568-23.168 38.352-58.832 38.352-106.976 0-48.16-12.832-83.824-38.352-106.992-25.648-23.136-60.992-34.72-106.080-34.72h-109.728zM606.192 533.024v-164.592h41.12c24.992 0 43.12 7.456 54.4 22.4s16.912 34.88 16.912 59.872c0 24.992-5.632 44.944-16.912 59.888s-29.712 22.4-55.312 22.4l-40.208 0.032z" />
<glyph unicode="&#xe91b;" glyph-name="remix" data-tags="remix" d="M511.088 960c143.216 0 264.496-49.68 363.872-149.040 99.328-98.752 149.040-219.728 149.040-362.96 0-143.264-48.784-263.312-146.32-360.224-102.992-101.184-225.216-151.776-366.592-151.776-138.384 0-258.448 50.288-360.224 150.88-100.56 100.544-150.864 220.896-150.864 361.104 0 139.568 50.304 260.56 150.864 362.96 99.344 99.376 219.424 149.056 360.224 149.056zM512.912 867.648c-116.4 0-214.848-41.152-295.312-123.44-83.52-84.736-125.264-183.472-125.264-296.208 0-114 41.44-212.112 124.32-294.4 82.896-82.912 181.632-124.336 296.224-124.336 113.968 0 213.344 41.728 298.064 125.248 80.464 78.016 120.688 175.824 120.688 293.488 0 117.008-40.848 215.76-122.496 296.208-81.072 82.32-179.824 123.44-296.224 123.44zM846.624 438.848l10.064-4.56v-144.448l-9.152-4.544-124.336-53.040-5.488-1.856-6.4 1.808-277.024 114.288-132.576-54.864-130.736 56.688v131.68l122.512 51.216-0.912 0.912v144.464l138.976 61.248 313.6-129.824v-127.088l101.472-42.080zM701.248 270.656v90.464h-0.912v3.68l-234.992 96v-93.28l234.992-96.928v0.928l0.912-0.864zM716.784 389.488l82.32 33.824-75.888 32-80.464-33.824 74.032-32zM824.688 310.848v88.672l-91.44-38.384v-89.616l91.44 39.328z" />
<glyph unicode="&#xe91c;" glyph-name="sa" data-tags="sa" d="M511.088 960c143.216 0 264.496-49.68 363.872-149.040 99.328-98.752 149.040-219.728 149.040-362.96 0-143.264-48.784-263.312-146.32-360.224-102.992-101.184-225.216-151.776-366.592-151.776-138.384 0-258.448 50.288-360.224 150.88-100.56 100.544-150.864 220.896-150.864 361.104 0 139.568 50.304 260.56 150.864 362.96 99.344 99.376 219.424 149.056 360.224 149.056zM512.912 867.648c-116.4 0-214.848-41.152-295.312-123.44-83.52-84.736-125.264-183.472-125.264-296.208 0-114 41.44-212.112 124.32-294.4 82.896-82.912 181.632-124.336 296.224-124.336 113.968 0 213.344 41.728 298.064 125.248 80.464 78.016 120.688 175.824 120.688 293.488 0 117.008-40.848 215.76-122.496 296.208-81.072 82.32-179.824 123.44-296.224 123.44zM284.336 520.24c9.744 62.784 35.024 111.392 75.872 145.824 40.832 34.432 90.496 51.648 149.024 51.648 80.416 0 144.448-25.92 192-77.696 47.536-51.808 71.312-118.256 71.312-199.312 0-78.64-24.688-144-74.032-196.096-49.424-52.096-113.392-78.176-192.048-78.176-57.888 0-107.872 17.344-149.92 52.112-42.064 34.752-67.344 84.112-75.888 148.112h128.944c3.040-62.192 40.528-93.264 112.464-93.264 35.936 0 64.912 15.552 86.848 46.624 21.968 31.072 32.96 72.544 32.96 124.336 0 54.256-10.080 95.536-30.176 123.888-20.128 28.336-49.040 42.512-86.88 42.512-68.288 0-106.672-30.16-115.2-90.496h37.472l-101.456-101.488-101.488 101.488 40.192-0.016z" />
<glyph unicode="&#xe91d;" glyph-name="sampling" data-tags="sampling" d="M511.088 960c143.808 0 265.28-49.536 364.32-148.576 99.056-99.040 148.592-220.176 148.592-363.424 0-143.264-48.784-263.008-146.32-359.296-102.992-101.792-225.216-152.704-366.592-152.704-139.008 0-258.912 50.32-359.776 150.88-100.896 100.576-151.312 220.928-151.312 361.12 0 140.176 50.304 261.472 150.864 363.872 98.752 98.768 218.8 148.128 360.224 148.128zM512.464 867.648c-116.112 0-214.416-40.848-294.848-122.512-83.52-84.736-125.264-183.776-125.264-297.152s41.44-211.52 124.336-294.352c82.896-82.928 181.632-124.336 296.224-124.336s213.936 41.712 298.064 125.248c80.464 78.032 120.688 175.84 120.688 293.488 0 117.024-40.848 216.064-122.48 297.136-81.712 81.648-180.624 122.48-296.72 122.48zM520.224 757.952c6.096 0.608 11.44-1.072 16.032-5.024 4.56-3.984 7.12-9.008 7.744-15.088v-3.664l13.712-221.248 10.064 122.512c0 6.096 2.128 11.28 6.352 15.536s9.488 6.416 15.552 6.416c6.096 0 11.28-2.144 15.568-6.416 4.256-4.272 6.4-9.44 6.4-15.536v-3.648l11.824-164.576 11.904 132.56c0.592 5.472 2.928 10.064 6.896 13.712 3.936 3.664 8.656 5.472 14.16 5.472s10.352-1.696 14.624-5.024c4.288-3.36 6.72-7.776 7.344-13.264l23.776-199.312 10.976 26.512c3.664 9.152 10.656 13.728 20.992 13.728h119.776v-43.92h-105.152l-37.472-91.408c-4.304-10.976-12.24-15.568-23.76-13.696-5.488 0.608-9.904 2.752-13.248 6.384-3.344 3.664-5.344 8.24-5.936 13.712l-8.24 65.824-15.536-191.072c-0.624-5.456-2.928-10.048-6.896-13.68-3.968-3.664-8.688-5.504-14.192-5.504-5.472 0-10.336 1.824-14.624 5.504-4.256 3.664-6.688 8.208-7.312 13.68v2.752l-12.784 158.192-10.976-149.040c-1.248-5.472-3.84-10.064-7.776-13.696-3.968-3.664-8.688-5.488-14.192-5.488-5.472 0-10.368 1.808-14.624 5.488-4.256 3.664-6.72 8.24-7.312 13.696v2.752l-11.904 178.304-11.872-195.664v-2.752c0-6.112-2.16-11.408-6.4-15.984s-9.44-6.88-15.536-6.88c-6.128 0-11.28 2.304-15.536 6.88-4.288 4.576-6.432 9.872-6.432 15.984v1.824l-11.872 181.008-10.976-174.624v-2.736c-1.232-5.504-3.808-10.080-7.744-13.712-3.984-3.664-8.688-5.472-14.176-5.472-5.472 0-10.368 1.808-14.624 5.472-4.272 3.664-6.704 8.24-7.328 13.712v2.736h-0.896v2.736l-12.8 182.848-10.064-117.008c-0.608-5.504-3.056-10.080-7.312-13.696-4.272-3.664-9.136-5.52-14.624-5.52s-10.224 1.68-14.192 5.040c-3.968 3.328-6.56 7.744-7.776 13.248l-22.864 157.248-2.72-5.472c-3.648-7.936-10.368-11.904-20.128-11.904h-106.048v43.904h92.352l28.336 57.6c4.272 9.744 11.712 13.872 22.4 12.352 10.656-1.52 16.912-7.472 18.736-17.824l6.4-42.048 17.36 202.048c0 6.096 2.128 11.28 6.4 15.536s9.44 6.416 15.536 6.416c6.096 0 11.264-2.144 15.536-6.416s6.384-9.44 6.384-15.536v-3.648l10.064-142.64 13.712 191.072v2.736c0.592 5.488 2.88 10.064 6.848 13.712 3.952 3.648 8.672 5.472 14.192 5.472 5.504 0 10.352-1.824 14.624-5.472 4.288-3.664 6.688-8.224 7.312-13.712v-2.736l10.976-166.4 12.816 202.048v3.664c0 5.472 1.968 10.064 5.936 13.712 4.016 3.664 8.736 5.792 14.24 6.416z" />
<glyph unicode="&#xe91e;" glyph-name="samplingplus" data-tags="sampling.plus" d="M511.36 960c-141.824 0-261.872-49.488-360.144-148.48-100.816-102.4-151.216-223.568-151.216-363.52 0-139.968 50.4-260.32 151.216-360.976 100.816-100.704 220.864-151.024 360.144-151.024 140.992 0 263.152 50.768 366.544 152.32 97.36 96.432 146.096 216.336 146.096 359.68 0 143.36-49.568 264.528-148.656 363.52-99.12 98.992-220.432 148.48-363.984 148.48zM512.64 867.856c116.208 0 214.896-40.96 296.048-122.896 82-81.056 122.992-180.032 122.992-296.96 0-117.744-40.128-215.488-120.432-293.12-84.592-83.648-184.16-125.456-298.608-125.456-114.496 0-213.168 41.456-296.032 124.176-82.896 82.768-124.336 180.944-124.336 294.4 0 113.504 41.856 212.496 125.6 296.96 80.32 81.936 178.56 122.896 294.768 122.896zM733.776 443.344c-9.696 0-18.464-5.84-22.16-14.8l-8.176-19.648-22.784 191.664c-1.488 12.224-11.952 21.392-24.336 21.168-12.272-0.24-22.448-9.76-23.44-22.048l-8.8-106.192-10.736 142.112c-0.976 12.464-11.36 22.176-23.872 22.176-12.56 0.032-22.992-9.632-23.968-22.112l-7.216-92.736-12.256 194.592c-0.8 12.656-11.248 22.512-23.968 22.512-12.688-0.032-23.152-9.888-23.904-22.56l-10.56-172.8-8.912 136.832c-0.816 12.656-11.248 22.448-23.904 22.448-12.672 0-23.136-9.76-23.968-22.416l-10.864-165.536-8.544 117.584c-0.944 12.48-11.248 22.176-23.744 22.272-12.528 0.080-23.024-9.456-24.096-21.952l-15.984-185.44-3.68 25.216c-1.568 10.448-9.696 18.656-20.16 20.24-10.48 1.584-20.704-3.856-25.232-13.408l-27.168-57.152h-90.672v-47.968h105.84c9.024 0 17.328 5.088 21.392 13.12l22.176-150.992c1.776-12.016 12.32-20.848 24.448-20.464 12.176 0.352 22.128 9.808 23.216 21.872l7.744 89.936 11.712-161.696c0.96-12.576 11.424-22.336 24.032-22.272 12.624 0.032 23.040 9.856 23.856 22.4l9.6 145.424 9.856-151.424c0.816-12.624 11.312-22.432 23.984-22.4 12.688 0 23.12 9.888 23.904 22.512l10.144 166.144 9.312-148.192c0.768-12.528 11.168-22.368 23.76-22.464 12.592-0.112 23.104 9.648 24.096 22.16l9.408 121.008 10.112-132.992c0.928-12.512 11.28-22.16 23.76-22.192 12.56-0.080 23.008 9.536 24 22l14.128 171.264 5.504-46.080c1.264-10.88 9.68-19.424 20.544-20.976 10.848-1.472 21.264 4.496 25.424 14.592l37.184 89.632h104.24v47.984l-120.272 0.048zM572.736 432.56h-45.296v-45.296c0-8.544-6.912-15.456-15.424-15.456-8.544 0-15.488 6.912-15.488 15.456v45.296h-45.28c-8.528 0-15.472 6.912-15.472 15.424 0 8.544 6.944 15.472 15.472 15.472h45.28v45.312c0 8.544 6.944 15.456 15.488 15.456 8.512 0 15.424-6.912 15.424-15.456v-45.312h45.296c8.528 0 15.456-6.912 15.456-15.472 0-8.512-6.928-15.424-15.456-15.424z" />
<glyph unicode="&#xe91f;" glyph-name="share" data-tags="share" d="M511.088 960c143.216 0 264.496-49.68 363.872-149.040 99.328-98.752 149.040-219.728 149.040-362.96 0-143.264-48.784-263.312-146.32-360.224-102.992-101.184-225.216-151.776-366.592-151.776-138.384 0-258.448 50.288-360.224 150.88-100.56 100.544-150.864 220.896-150.864 361.104 0 139.568 50.304 260.56 150.864 362.96 99.344 99.376 219.424 149.056 360.224 149.056zM512.912 867.648c-116.4 0-214.848-41.152-295.312-123.44-83.52-84.736-125.264-183.472-125.264-296.208 0-114 41.44-212.112 124.32-294.4 82.896-82.912 181.632-124.336 296.224-124.336 113.968 0 213.344 41.728 298.064 125.248 80.464 78.016 120.688 175.824 120.688 293.488 0 117.008-40.848 215.76-122.496 296.208-81.072 82.32-179.824 123.44-296.224 123.44zM721.376 594.288c7.904 0 14.624-2.736 20.096-8.208 5.504-5.488 8.256-12.208 8.256-20.128v-376.672c0-7.92-2.752-14.624-8.256-20.096-5.472-5.504-12.192-8.24-20.096-8.24h-278.864c-7.936 0-14.624 2.72-20.128 8.256-5.504 5.488-8.224 12.176-8.224 20.096v111.568h-111.536c-7.952 0-14.64 2.72-20.128 8.224-5.472 5.472-8.224 12.176-8.224 20.128v376.64c0 7.328 2.416 13.568 7.328 18.736 4.848 5.168 10.96 8.368 18.272 9.6h281.584c7.904 0 14.624-2.736 20.144-8.224 5.472-5.472 8.224-12.208 8.224-20.128v-111.552h111.568zM330.048 356.576h84.112v209.376c0 7.312 2.416 13.552 7.328 18.736 4.864 5.152 10.672 8.368 17.36 9.6h115.216v83.2h-224v-320.912zM693.936 538.528h-224v-320.928h224v320.928z" />
<glyph unicode="&#xe920;" glyph-name="zero" data-tags="zero" d="M504 734.72c-169.040 0-211.552-159.504-211.552-294.72 0-135.232 42.496-294.72 211.552-294.72 169.024 0 211.536 159.488 211.536 294.72 0 135.216-42.512 294.72-211.536 294.72zM504 623.584c6.864 0 13.12-1.056 19.008-2.512 12.192-10.496 18.128-24.976 6.448-45.168l-112.576-206.88c-3.456 26.176-3.952 51.84-3.952 70.992 0 59.552 4.128 183.568 91.072 183.568zM588.256 528.208c5.968-31.744 6.816-64.896 6.816-88.208 0-59.568-4.128-183.6-91.024-183.6-6.848 0-13.152 0.72-19.008 2.176-1.12 0.336-2.144 0.688-3.232 1.072-1.792 0.496-3.68 1.072-5.376 1.744-19.36 8.256-31.552 23.136-13.984 49.504l125.808 217.312zM502.928 952c-142.032 0-261.744-49.44-359.264-148.8-49.392-49.392-87.088-105.712-113.312-168.512-25.6-62.192-38.352-127.024-38.352-194.688 0-68.288 12.752-133.12 38.352-194.688 25.6-61.6 62.736-116.992 111.504-166.336 49.36-48.784 104.784-86.368 166.368-112.592 62.176-25.632 127.024-38.352 194.704-38.352 67.664 0 133.44 13.216 196.848 39.44 63.392 26.24 119.936 63.904 169.936 113.296 48.176 46.944 84.624 100.752 108.992 161.68 24.976 61.552 37.296 127.424 37.296 197.552 0 69.488-12.32 135.264-37.28 196.848-24.992 62.16-61.568 117.12-109.712 165.28-100.608 99.968-222.848 149.872-366.080 149.872zM505.072 859.856c115.808 0 214.592-41.056 296.864-123.344 39.632-39.632 70-84.96 90.72-135.536 20.736-50.592 31.184-104.288 31.184-160.976 0-117.664-40.256-215.264-120.096-293.28-41.472-40.256-88.032-71.152-139.84-92.496-51.2-21.344-103.968-31.904-158.832-31.904-55.488 0-108.608 10.448-159.184 31.168-50.608 21.344-96.016 51.808-136.256 91.456-40.24 40.24-71.28 85.664-93.216 136.272-21.328 51.168-32.272 103.968-32.272 158.832 0 55.472 10.944 108.592 32.272 159.184 21.936 51.2 52.992 97.184 93.216 138.048 79.84 81.632 178.4 122.576 295.44 122.576z" />
</font>
</defs>
</svg>
